<?xml version="1.0" standalone="no"?>
<!DOCTYPE svg PUBLIC "-//W3C//DTD SVG 1.1//EN" "http://www.w3.org/Graphics/SVG/1.1/DTD/svg11.dtd" >
<svg xmlns="http://www.w3.org/2000/svg">
<metadata>
This is a custom SVG webfont generated by Font Squirrel.
Copyright   : Copyright c 2008 by Jos Buivenga All rights reserved
Designer    : Jos Buivenga
Foundry     : Jos Buivenga
Foundry URL : httpwwwjosbuivengademonnl
</metadata>
<defs>
<font id="MuseoSans700" horiz-adv-x="1280" >
<font-face units-per-em="2048" ascent="1536" descent="-512" />
<missing-glyph horiz-adv-x="497" />
<glyph unicode=" "  horiz-adv-x="497" />
<glyph unicode="&#x09;" horiz-adv-x="497" />
<glyph unicode="&#xa0;" horiz-adv-x="497" />
<glyph unicode="!" horiz-adv-x="671" d="M201 1454h270l-20 -1034h-228zM211 0v242h252v-242h-252z" />
<glyph unicode="&#x22;" horiz-adv-x="749" d="M115 1053v428h192v-428h-192zM442 1053v428h193v-428h-193z" />
<glyph unicode="#" horiz-adv-x="1445" d="M74 383l30 186h244l51 287h-239l30 188h242l72 410h209l-72 -410h279l71 410h209l-72 -410h248l-33 -188h-245l-51 -287h243l-30 -186h-246l-66 -383h-209l68 383h-281l-65 -383h-209l65 383h-243zM557 569h281l51 287h-281z" />
<glyph unicode="$" horiz-adv-x="1167" d="M92 174l144 199q6 -6 18 -16.5t50 -37t78 -47t99.5 -37t116.5 -16.5q88 0 149.5 46t61.5 130q0 68 -71.5 120t-173 94t-203 93.5t-173 141.5t-71.5 213q0 158 106.5 270.5t278.5 140.5v193h176v-188q106 -8 196.5 -46t126.5 -71l37 -33l-114 -215q-16 14 -44 35.5 t-112 56.5t-166 35q-94 0 -156.5 -49t-62.5 -125q0 -66 70.5 -116t173 -91t204 -91t172 -142.5t70.5 -219.5q0 -162 -106.5 -278.5t-288.5 -140.5v-189h-176v189q-117 14 -219.5 62t-147.5 89z" />
<glyph unicode="%" horiz-adv-x="1622" d="M78 1155q0 133 98 228.5t235.5 95.5t237 -95.5t99.5 -228.5q0 -135 -98.5 -229.5t-238 -94.5t-236.5 94.5t-97 229.5zM129 0l1116 1454h240l-1116 -1454h-240zM276 1155q0 -57 39 -96t96.5 -39t97.5 39t40 96q0 55 -40 95t-97.5 40t-96.5 -40t-39 -95zM872 297 q0 133 97.5 228.5t236.5 95.5q137 0 235.5 -95.5t98.5 -228.5t-97 -227.5t-236.5 -94.5t-237 94.5t-97.5 227.5zM1071 299q0 -57 39 -96t96.5 -39t97 39t39.5 96q0 55 -39.5 95t-97 40t-96.5 -40t-39 -95z" />
<glyph unicode="&#x26;" horiz-adv-x="1406" d="M92 412q0 121 67.5 222t180.5 140v4q-8 2 -20.5 9.5t-44 33t-56 57t-44 90t-19.5 128.5q0 184 129 283.5t329 99.5q41 0 88.5 -6.5t75.5 -12.5l27 -6l-64 -209q-49 12 -96 12q-96 0 -159.5 -51t-63.5 -143q0 -78 51 -135.5t170 -57.5h231v189h261v-189h188v-229h-188 v-172q0 -225 -139.5 -359.5t-383.5 -134.5q-233 0 -376.5 124.5t-143.5 312.5zM362 428q0 -90 70 -150.5t180 -60.5q125 0 193.5 67.5t68.5 198.5v158h-245q-125 0 -196 -54.5t-71 -158.5z" />
<glyph unicode="'" horiz-adv-x="425" d="M115 1053v428h196v-428h-196z" />
<glyph unicode="(" horiz-adv-x="634" d="M133 702q0 430 244 816h219q-231 -389 -231 -818q0 -469 231 -895h-219q-244 399 -244 897z" />
<glyph unicode=")" horiz-adv-x="634" d="M39 -195q231 432 231 895q0 428 -231 818h219q244 -385 244 -816q0 -498 -244 -897h-219z" />
<glyph unicode="*" horiz-adv-x="944" d="M55 1065l70 221l248 -100l-19 268h236l-19 -268l248 100l74 -219l-262 -66v-4l172 -202l-187 -138l-141 226h-4l-141 -226l-187 136l170 204v4z" />
<glyph unicode="+" horiz-adv-x="1296" d="M100 483v203h443v485h211v-485h442v-203h-442v-483h-211v483h-443z" />
<glyph unicode="," horiz-adv-x="542" d="M35 -215l137 479h256l-197 -479h-196z" />
<glyph unicode="-" horiz-adv-x="935" d="M160 471v227h616v-227h-616z" />
<glyph unicode="." horiz-adv-x="526" d="M133 0v260h260v-260h-260z" />
<glyph unicode="/" horiz-adv-x="839" d="M55 -86l520 1614h224l-523 -1614h-221z" />
<glyph unicode="0" horiz-adv-x="1288" d="M117 729q0 750 526 750q145 0 249.5 -57.5t164 -162t87 -235.5t27.5 -295t-27.5 -295t-87 -237.5t-165 -164t-248.5 -57.5t-248.5 57.5t-164 164t-86 237.5t-27.5 295zM387 729q0 -512 256 -512t256 512q0 506 -256 506t-256 -506z" />
<glyph unicode="1" horiz-adv-x="1048" d="M88 1104l365 350h231v-1227h315v-227h-888v227h315v807l2 99h-4q-16 -35 -64 -82l-116 -111z" />
<glyph unicode="2" horiz-adv-x="1187" d="M102 1188l17 32q10 19 52 69t92 88t136 70t185 32q201 0 337 -116t136 -314q0 -109 -48 -203t-121 -156.5t-158 -124t-157.5 -107.5t-122 -106.5t-51.5 -124.5h680v-227h-964q-12 94 -13 129q0 106 38 198.5t97.5 159t132 124t145.5 106.5t132.5 96t97 101.5t37.5 111.5 q0 92 -63.5 147.5t-157.5 55.5q-47 0 -92 -17.5t-74.5 -43t-52.5 -51t-33 -44.5l-10 -16z" />
<glyph unicode="3" horiz-adv-x="1175" d="M72 170l135 203q16 -16 44 -41t114 -66t172 -41q113 0 187.5 61.5t74.5 155.5q0 111 -88 168.5t-224 57.5h-100l-59 135l266 315q57 68 104 111v4q-43 -6 -129 -6h-434v227h889v-166l-356 -411q164 -23 280.5 -134.5t116.5 -289.5q0 -197 -139.5 -337.5t-372.5 -140.5 q-262 0 -451 164z" />
<glyph unicode="4" horiz-adv-x="1271" d="M57 375v162l627 917h313v-860h189v-219h-189v-375h-260v375h-680zM336 594h401v450l11 152h-5q-33 -78 -71 -133l-336 -465v-4z" />
<glyph unicode="5" horiz-adv-x="1165" d="M88 172l135 199q4 -6 13.5 -15.5t41 -35t65.5 -45t85 -35t104 -15.5q111 0 193 68.5t82 179.5q0 113 -83 182.5t-210 69.5q-57 0 -113.5 -15.5t-85.5 -29.5l-26 -16l-146 53l68 737h764v-227h-537l-22 -240l-10 -67h4q68 33 155 32q233 0 372.5 -137t139.5 -340 q0 -215 -148.5 -357.5t-375.5 -142.5q-258 0 -434 164z" />
<glyph unicode="6" horiz-adv-x="1236" d="M109 666q0 117 25.5 231.5t80.5 220t132 185t188.5 128t242.5 48.5q182 0 297 -62l-78 -227q-92 45 -204 45q-160 0 -258.5 -111.5t-128.5 -277.5h4q39 45 116.5 73.5t155.5 28.5q209 0 338 -141t129 -344q0 -207 -133 -347.5t-346 -140.5q-238 0 -399.5 187t-161.5 504z M383 573q0 -137 86 -246.5t201 -109.5q98 0 157.5 69.5t59.5 176.5q0 117 -71 192.5t-195 75.5q-98 0 -168 -45t-70 -113z" />
<glyph unicode="7" horiz-adv-x="1114" d="M72 1227v227h999v-184l-637 -1270h-274l545 1094q45 90 88 133v4q-29 -4 -101 -4h-620z" />
<glyph unicode="8" horiz-adv-x="1251" d="M104 422q0 94 49.5 182t90.5 127t80 66q-150 115 -150 284q0 164 121 281t346 117q207 0 339 -108.5t132 -295.5q0 -174 -162 -358q186 -119 187 -309q0 -176 -139.5 -304.5t-372.5 -128.5q-231 0 -376 128.5t-145 318.5zM375 442q0 -100 73.5 -166.5t176.5 -66.5 q104 0 173.5 58.5t69.5 152.5q0 37 -16 66.5t-62.5 60.5t-74 46t-104 49t-101.5 46q-135 -113 -135 -246zM434 1075q0 -37 18.5 -68.5t37 -52t68.5 -48t73.5 -39t91.5 -40.5q23 -10 33 -14q98 109 98 246q0 84 -59.5 134t-157.5 50q-96 0 -149.5 -47t-53.5 -121z" />
<glyph unicode="9" horiz-adv-x="1236" d="M88 991q0 205 133 346.5t346 141.5q238 0 399.5 -186.5t161.5 -504.5q0 -117 -25.5 -231.5t-80.5 -220t-132 -185t-188.5 -128t-242.5 -48.5q-182 0 -297 62l78 227q92 -47 202 -47q160 0 259.5 111.5t129.5 277.5h-4q-39 -45 -116.5 -73.5t-157.5 -28.5q-209 0 -337 142 t-128 345zM348 991q0 -117 70.5 -193.5t197.5 -76.5q98 0 168 46t70 112q0 137 -87 246.5t-200 109.5q-98 0 -158.5 -70t-60.5 -174z" />
<glyph unicode=":" horiz-adv-x="589" d="M166 0v260h258v-260h-258zM166 784v260h258v-260h-258z" />
<glyph unicode=";" horiz-adv-x="598" d="M63 -215l119 479h256l-176 -479h-199zM184 784v260h258v-260h-258z" />
<glyph unicode="&#x3c;" horiz-adv-x="1138" d="M51 502v168l985 438v-227l-710 -293v-4l710 -293v-228z" />
<glyph unicode="=" horiz-adv-x="1335" d="M168 274v201h999v-201h-999zM168 694v201h999v-201h-999z" />
<glyph unicode="&#x3e;" horiz-adv-x="1138" d="M102 63v228l711 293v4l-711 293v227l985 -438v-168z" />
<glyph unicode="?" horiz-adv-x="997" d="M49 1335q16 16 46 41t130.5 66t208.5 41q182 0 314.5 -105.5t132.5 -279.5q0 -94 -37 -170t-89.5 -125l-104.5 -93t-89 -97.5t-37 -112.5v-80h-252v98q0 82 35 150.5t85 114.5l100 88q49 42 83.5 93.5t34.5 108.5q0 72 -57 121t-141 49q-51 0 -106.5 -21.5t-84.5 -41.5 l-28 -23zM272 0v242h252v-242h-252z" />
<glyph unicode="@" horiz-adv-x="1708" d="M104 492q0 319 222.5 541t547.5 222q293 0 428.5 -124.5t135.5 -321.5v-512h149v-186h-567q-199 0 -319.5 112.5t-120.5 268.5q0 154 119.5 264t320.5 110h174q-2 80 -90 130.5t-221 50.5q-219 0 -371 -166t-152 -389q0 -231 153 -390t402 -159v-203q-360 0 -585.5 215 t-225.5 537zM838 498q0 -84 55 -142.5t143 -58.5h158v401h-154q-90 0 -146 -58t-56 -142z" />
<glyph unicode="A" horiz-adv-x="1304" d="M2 0l512 1454h277l512 -1454h-273l-123 373h-510l-123 -373h-272zM461 588h381l-129 389l-58 225h-4q-33 -143 -61 -225z" />
<glyph unicode="B" horiz-adv-x="1314" d="M184 0v1454h521q201 0 324.5 -99.5t123.5 -275.5q0 -102 -47 -184t-129 -127v-4q115 -33 175 -129t60 -213q0 -207 -143 -314.5t-358 -107.5h-527zM449 227h282q98 0 154.5 58.5t56.5 152.5q0 92 -56.5 150.5t-154.5 58.5h-282v-420zM449 860h256q84 0 132 52.5t48 134 t-47 131t-138 49.5h-251v-367z" />
<glyph unicode="C" horiz-adv-x="1466" d="M84 733q0 317 214 531.5t533 214.5q98 0 190.5 -20.5t153 -49.5t106.5 -58.5t67 -50.5l20 -20l-127 -197q-18 16 -52 42t-138.5 69t-206.5 43q-223 0 -355.5 -144.5t-132.5 -355.5q0 -215 135.5 -367.5t354.5 -152.5q217 0 397 162l25 22l139 -190q-8 -10 -23.5 -25.5 t-71 -56.5t-116.5 -71.5t-158.5 -56.5t-201.5 -26q-330 0 -541 217t-211 541z" />
<glyph unicode="D" horiz-adv-x="1513" d="M184 0v1454h496q340 0 540.5 -192.5t200.5 -532.5t-200.5 -534.5t-540.5 -194.5h-496zM449 227h217q225 0 354 130t129 372q0 238 -130 368t-353 130h-217v-1000z" />
<glyph unicode="E" horiz-adv-x="1177" d="M184 0v1454h871v-227h-606v-381h489v-228h-489v-391h638v-227h-903z" />
<glyph unicode="F" horiz-adv-x="1083" d="M184 0v1454h836v-227h-571v-412h481v-227h-481v-588h-265z" />
<glyph unicode="G" horiz-adv-x="1556" d="M86 729q0 317 214 533.5t536 216.5q303 0 507 -158l33 -27l-131 -196q-18 16 -50 38.5t-133 61.5t-204 39q-236 0 -368 -142.5t-132 -357.5q0 -231 139.5 -375.5t348.5 -144.5q195 0 348 137l16 15v170h-223v227h461v-766h-225v70l2 61h-4q-6 -6 -18.5 -16.5t-52.5 -38 t-86 -48t-118 -37t-147 -16.5q-297 0 -505 210t-208 544z" />
<glyph unicode="H" horiz-adv-x="1562" d="M184 0v1454h265v-616h665v616h264v-1454h-264v610h-665v-610h-265z" />
<glyph unicode="I" horiz-adv-x="632" d="M184 0v1454h265v-1454h-265z" />
<glyph unicode="J" horiz-adv-x="1120" d="M49 430v84h262v-68q0 -119 55.5 -174t137.5 -55t134 53.5t52 163.5v793h-375v227h639v-1024q0 -223 -134 -339t-320 -116q-184 0 -317.5 117t-133.5 338z" />
<glyph unicode="K" horiz-adv-x="1325" d="M184 0v1454h265v-592h188l342 592h287l-412 -692v-4l436 -758h-297l-356 635h-188v-635h-265z" />
<glyph unicode="L" horiz-adv-x="1103" d="M184 0v1454h265v-1227h628v-227h-893z" />
<glyph unicode="M" horiz-adv-x="1798" d="M139 0l119 1454h283l284 -719l74 -213h4q39 127 72 213l285 719h282l117 -1454h-262l-62 813q-6 96 -2 225h-4q-43 -141 -78 -225l-235 -563h-232l-233 563l-80 227h-4q4 -131 -2 -227l-62 -813h-264z" />
<glyph unicode="N" horiz-adv-x="1556" d="M184 0v1454h265l550 -840q25 -37 55.5 -93t47.5 -95l18 -37h4q-14 139 -14 225v840h262v-1454h-262l-551 838q-25 37 -54 93l-48 93l-19 39h-4q14 -139 15 -225v-838h-265z" />
<glyph unicode="O" horiz-adv-x="1671" d="M84 737q0 313 216 527.5t535.5 214.5t535.5 -214t216 -528q0 -322 -216 -542t-535.5 -220t-535.5 220t-216 542zM356 737q0 -223 139.5 -371.5t340 -148.5t340 148.5t139.5 371.5q0 213 -139.5 356.5t-340 143.5t-340 -143.5t-139.5 -356.5z" />
<glyph unicode="P" horiz-adv-x="1257" d="M184 0v1454h561q205 0 334 -131t129 -342t-129 -345t-334 -134h-296v-502h-265zM449 731h247q115 0 179.5 67.5t64.5 182.5q0 113 -64.5 179.5t-175.5 66.5h-251v-496z" />
<glyph unicode="Q" horiz-adv-x="1691" d="M84 735q0 313 215 528.5t535 215.5q322 0 537.5 -214t215.5 -530q0 -250 -160 -461l164 -147l-151 -168l-162 160q-188 -143 -444 -144q-317 0 -533.5 220.5t-216.5 539.5zM356 735q0 -221 138.5 -369.5t339.5 -148.5q141 0 253 76l-161 153l151 166l158 -157 q80 129 80 280q0 215 -138.5 358.5t-342.5 143.5q-201 0 -339.5 -143.5t-138.5 -358.5z" />
<glyph unicode="R" horiz-adv-x="1347" d="M184 0v1454h469q203 0 293 -41q111 -51 174.5 -153.5t63.5 -243.5q0 -133 -66.5 -242.5t-179.5 -155.5v-4q20 -20 49 -71l299 -543h-295l-289 543h-253v-543h-265zM449 772h237q106 0 167.5 60.5t61.5 168.5q0 113 -59 169.5t-207 56.5h-200v-455z" />
<glyph unicode="S" horiz-adv-x="1134" d="M74 174l143 199q6 -6 18.5 -16.5t50.5 -37t77.5 -47t99 -37t117.5 -16.5q88 0 149.5 46t61.5 130q0 70 -71 124t-172.5 95t-201.5 90.5t-171 139.5t-71 213q0 180 139.5 301t348.5 121q250 0 414 -138l20 -18l-115 -215q-16 14 -43.5 35.5t-111.5 56.5t-166 35 q-94 0 -156.5 -49t-62.5 -125q0 -70 70.5 -121t171 -90t200.5 -88t171 -140.5t71 -220.5q0 -180 -130 -303t-350 -123q-272 0 -469 168z" />
<glyph unicode="T" horiz-adv-x="1234" d="M8 1227v227h1219v-227h-477v-1227h-265v1227h-477z" />
<glyph unicode="U" horiz-adv-x="1501" d="M164 522v932h264v-932q0 -143 87 -224t234.5 -81t235.5 81t88 226v930h264v-932q0 -244 -161.5 -395.5t-423.5 -151.5q-264 0 -426 151.5t-162 395.5z" />
<glyph unicode="V" horiz-adv-x="1318" d="M-2 1454h285l319 -948q12 -37 26 -90l21 -88l8 -35h5l8 35l21 88q13 53 26 90l321 948h283l-530 -1454h-263z" />
<glyph unicode="W" horiz-adv-x="1978" d="M53 1454h273l229 -1005l25 -154h4l2 20q2 18 8 57.5t16 76.5l262 1005h230l258 -1005q10 -37 16 -76t8 -58l2 -20h5q6 72 24 154l240 1005h272l-375 -1454h-305l-223 860q-25 94 -37 191h-4q-12 -96 -37 -191l-223 -860h-305z" />
<glyph unicode="X" horiz-adv-x="1296" d="M35 0l452 737l-434 717h301l199 -356l92 -178h4q41 92 88 178l203 356h303l-438 -717l455 -737h-297l-226 391l-90 172h-4q-41 -88 -90 -172l-223 -391h-295z" />
<glyph unicode="Y" horiz-adv-x="1239" d="M4 1454h299l227 -428q10 -18 20 -39l17 -39l17 -37l14 -32q6 -14 10 -25.5l6 -17.5l4 -5h5q41 104 88 195l225 428h299l-483 -846v-608h-265v608z" />
<glyph unicode="Z" horiz-adv-x="1257" d="M78 0v170l645 926q25 37 51.5 69.5t40.5 46.5l14 15v4q-41 -4 -108 -4h-610v227h1050v-168l-645 -928q-25 -37 -51.5 -69.5t-40.5 -46.5l-14 -15v-4q41 4 108 4h651v-227h-1091z" />
<glyph unicode="[" horiz-adv-x="649" d="M190 -195v1713h404v-189h-182v-1335h182v-189h-404z" />
<glyph unicode="\" horiz-adv-x="841" d="M41 1528h223l522 -1614h-223z" />
<glyph unicode="]" horiz-adv-x="649" d="M55 -6h183v1335h-183v189h404v-1713h-404v189z" />
<glyph unicode="^" horiz-adv-x="1267" d="M133 502l412 952h164l411 -952h-225l-268 678l-269 -678h-225z" />
<glyph unicode="_" horiz-adv-x="1230" d="M41 0h1149v-201h-1149v201z" />
<glyph unicode="`" horiz-adv-x="1009" d="M293 1829h268l156 -279h-211z" />
<glyph unicode="a" horiz-adv-x="1093" d="M55 301q0 80 33 141.5t91.5 98.5t120.5 61.5t139 35.5t128 14t107 3h35v15q0 184 -201 184q-145 -2 -287 -100l-98 186q18 14 52 35.5t140.5 57.5t216.5 36q207 0 321 -108.5t114 -307.5v-653h-240v86l4 74h-4q2 0 -8 -19.5t-35 -46t-59.5 -53.5t-92 -46.5t-122.5 -19.5 q-147 0 -251 88t-104 238zM317 313q0 -55 41 -95t117 -40q98 0 167 87t69 188v24h-45q-349 0 -349 -164z" />
<glyph unicode="b" horiz-adv-x="1251" d="M143 0v1454h260v-448l-4 -88h4l12 16q7 10 34.5 36.5t61.5 46t89 36t117 16.5q211 0 337 -151.5t126 -395.5q0 -246 -134.5 -396.5t-345.5 -150.5q-61 0 -115.5 16.5t-88 39t-59 45t-36.5 39.5l-12 16h-4q4 -31 4 -72v-59h-246zM395 516q0 -131 68.5 -226t191.5 -95 q113 0 188 87t75 236q0 147 -72 237.5t-189 90.5q-111 0 -186.5 -83t-75.5 -247z" />
<glyph unicode="c" horiz-adv-x="1116" d="M68 522q0 229 156.5 388t410.5 159q236 0 383 -137l18 -19l-114 -178q-12 12 -35 30.5t-93.5 50.5t-144.5 32q-141 0 -229 -93t-88 -230.5t90 -232.5t235 -95q78 0 155 32.5t114 65.5l39 35l100 -185l-17.5 -18t-52.5 -41t-87 -51.5t-120.5 -41t-152.5 -18.5 q-254 0 -410.5 157t-156.5 390z" />
<glyph unicode="d" horiz-adv-x="1251" d="M72 522q0 246 132 396.5t341 150.5q199 0 291 -117l10 -16h4q-2 27 -2 59v459h260v-1454h-246v86l4 68h-4q-4 -8 -11 -19.5t-35 -42.5t-62.5 -54.5t-93 -43t-125.5 -19.5q-211 0 -337 151.5t-126 395.5zM334 522q0 -147 71.5 -237t188.5 -90q111 0 186.5 82.5t75.5 246.5 q0 131 -68.5 226.5t-191.5 95.5q-113 0 -187.5 -87t-74.5 -237z" />
<glyph unicode="e" horiz-adv-x="1134" d="M70 522q0 242 148.5 394.5t381.5 152.5q219 0 341 -140.5t122 -355.5l-6 -100h-721q12 -131 101 -203.5t212 -72.5q74 0 149.5 28.5t114.5 57.5l37 28l101 -186q-6 -6 -18.5 -16.5t-54.5 -36t-87 -45t-115.5 -36t-144.5 -16.5q-252 0 -406.5 159t-154.5 388zM344 651h457 q-2 102 -60.5 159.5t-146.5 57.5q-100 0 -166 -57.5t-84 -159.5z" />
<glyph unicode="f" horiz-adv-x="710" d="M68 821v207h129v47q0 98 30.5 171t75.5 113t107.5 64.5t111.5 31.5t101 7l88 -6v-221q-23 4 -54 4q-201 0 -200 -170v-41h223v-207h-223v-821h-260v821h-129z" />
<glyph unicode="g" horiz-adv-x="1236" d="M74 549q0 225 122.5 372.5t340.5 147.5q63 0 118.5 -13.5t89 -32.5t57 -39.5t34.5 -33.5l10 -14h6q-2 12 -2 29v79h244v-981q0 -129 -47.5 -227t-127 -154.5t-175 -84t-201.5 -27.5q-201 0 -371 90l78 199q131 -68 289 -68q131 0 213 61.5t82 192.5v61l4 56h-4 q-94 -141 -291 -142q-217 0 -343 153t-126 376zM336 557q0 -141 69.5 -229t192.5 -88q106 0 174 71.5t68 235.5q0 301 -258 301q-117 0 -181.5 -79t-64.5 -212z" />
<glyph unicode="h" horiz-adv-x="1255" d="M143 0v1454h260v-504l-4 -88h4q43 84 138.5 145.5t222.5 61.5q362 0 362 -397v-672h-258v618q0 104 -35.5 158.5t-130.5 54.5q-100 0 -175.5 -60t-106.5 -157q-16 -55 -17 -135v-479h-260z" />
<glyph unicode="i" horiz-adv-x="546" d="M143 0v1044h260v-1044h-260zM143 1223v231h258v-231h-258z" />
<glyph unicode="j" horiz-adv-x="546" d="M-113 -199q18 -4 45 -4q35 0 66 7.5t66.5 24.5t57 59t21.5 102v1054h260v-1075q0 -100 -32.5 -175t-78.5 -114.5t-109.5 -64.5t-114 -32t-101.5 -7l-80 6v219zM143 1223v231h258v-231h-258z" />
<glyph unicode="k" horiz-adv-x="1130" d="M143 0v1454h260v-778h129l252 368h289l-330 -466v-5l371 -573h-299l-276 457h-136v-457h-260z" />
<glyph unicode="l" horiz-adv-x="581" d="M129 326v1128h258v-1089q0 -82 25.5 -113t81.5 -31l38 2v-227q-39 -6 -81 -6q-63 0 -112.5 11t-101 43t-80 104t-28.5 178z" />
<glyph unicode="m" horiz-adv-x="1869" d="M143 1044h250v-120l-4 -72h4q43 86 134 151.5t206 65.5q240 0 305 -215h4q45 90 142.5 152.5t214.5 62.5q342 0 342 -397v-672h-260v623q0 102 -30 155t-114 53q-96 0 -161.5 -66.5t-90.5 -170.5q-12 -49 -12 -135v-459h-260v623q0 100 -28.5 154t-112.5 54 q-96 0 -163 -66.5t-93 -172.5q-12 -47 -13 -133v-459h-260v1044z" />
<glyph unicode="n" horiz-adv-x="1255" d="M143 0v1044h250v-120l-4 -72h4q43 84 136.5 150.5t234.5 66.5q362 0 362 -397v-672h-258v618q0 104 -35.5 158.5t-130.5 54.5q-102 0 -175.5 -58t-104.5 -155q-18 -55 -19 -139v-479h-260z" />
<glyph unicode="o" d="M66 522.5q0 237.5 165.5 392t407.5 154.5t408.5 -154.5t166.5 -392t-165.5 -392.5t-407.5 -155q-244 0 -409.5 155t-165.5 392.5zM330 522q0 -143 90 -234t221 -91q129 0 219 91t90 234q0 141 -90 233.5t-219 92.5t-220 -92.5t-91 -233.5z" />
<glyph unicode="p" horiz-adv-x="1251" d="M143 -410v1454h238v-75l-4 -72h4q4 6 11 18.5t36 42t63.5 52t95 41t130.5 18.5q211 0 337 -151.5t126 -395.5q0 -246 -134.5 -396.5t-343.5 -150.5q-57 0 -109 14.5t-85 36t-58.5 43t-35.5 35.5l-11 15h-4q4 -37 4 -90v-439h-260zM395 516q0 -131 68.5 -226t191.5 -95 q113 0 188 87t75 236q0 147 -72 237.5t-189 90.5q-111 0 -186.5 -83t-75.5 -247z" />
<glyph unicode="q" horiz-adv-x="1251" d="M72 522q0 246 132 396.5t341 150.5q102 0 181 -38t108 -77l28 -36h4q-4 27 -4 67v59h246v-1454h-260v451l4 90h-4l-11 -16q-7 -10 -35 -38t-60.5 -48.5t-88 -37t-118.5 -16.5q-211 0 -337 151.5t-126 395.5zM334 522q0 -147 71.5 -237t188.5 -90q111 0 186.5 82.5 t75.5 246.5q0 131 -68.5 226.5t-191.5 95.5q-113 0 -187.5 -87t-74.5 -237z" />
<glyph unicode="r" horiz-adv-x="804" d="M143 0v1044h250v-180l-4 -73h4q37 117 126 192.5t206 75.5l47 -4v-256q-27 4 -61 4q-92 0 -171 -55.5t-114 -163.5q-23 -70 -23 -170v-414h-260z" />
<glyph unicode="s" horiz-adv-x="925" d="M55 129l119 182q12 -12 35.5 -31.5t98.5 -51t151 -31.5q57 0 97 24.5t40 69.5q0 41 -52 74.5t-127 62.5t-149.5 66.5t-127 105.5t-52.5 162q0 141 112.5 224t286.5 83q104 0 192.5 -29.5t123.5 -60.5l35 -29l-97 -192q-10 10 -30.5 25.5t-87 40t-138.5 24.5 q-55 0 -94 -23.5t-39 -70.5q0 -39 52.5 -71t127 -60.5t149.5 -65.5t127 -105.5t52 -162.5q0 -135 -108.5 -224.5t-290.5 -89.5q-115 0 -216.5 39t-146.5 76z" />
<glyph unicode="t" horiz-adv-x="772" d="M53 821v207h142v301h254v-301h237v-207h-237v-405q0 -113 64.5 -155t141.5 -42l47 4v-227q-31 -6 -79 -6q-53 0 -102.5 7t-113 31.5t-109.5 64.5t-78 115t-32 175v438h-135z" />
<glyph unicode="u" horiz-adv-x="1247" d="M129 373v671h260v-618q0 -104 36 -158.5t126 -54.5q135 0 214 102.5t79 249.5v479h260v-1044h-250v119l4 74h-4q-43 -88 -140.5 -153t-221.5 -65q-363 1 -363 398z" />
<glyph unicode="v" horiz-adv-x="1062" d="M0 1044h274l218 -647q8 -27 17 -66l15 -65l4 -26h4l5 26l15 65q9 40 17 66l217 647h275l-375 -1044h-307z" />
<glyph unicode="w" horiz-adv-x="1681" d="M29 1044h274l182 -686l21 -110h4q10 55 25 110l192 684h231l193 -684l23 -110h4q8 55 22 110l182 686h271l-318 -1044h-288l-177 596l-26 113h-4q-8 -57 -25 -113l-176 -596h-291z" />
<glyph unicode="x" horiz-adv-x="1073" d="M35 0l344 528l-336 516h295l162 -284l35 -66h4q18 39 34 66l162 284h295l-336 -516l344 -528h-288l-183 303l-28 55h-4q-14 -33 -29 -55l-182 -303h-289z" />
<glyph unicode="y" horiz-adv-x="1067" d="M-16 1044h292l220 -602l39 -141h4q16 82 34 137l205 606h285l-467 -1202q-53 -137 -152.5 -204.5t-224.5 -67.5q-55 0 -109.5 16.5t-80.5 32.5l-27 19l86 194q57 -43 117 -43q123 0 180 135l39 92z" />
<glyph unicode="z" horiz-adv-x="1073" d="M72 0v139l469 588q20 27 42.5 50.5t34.5 33.5l11 12v4q-31 -4 -97 -4h-440v221h889v-141l-469 -588q-20 -27 -43 -50l-35 -36l-12 -10v-4q31 6 98 6h475v-221h-923z" />
<glyph unicode="{" horiz-adv-x="747" d="M88 557v227q6 0 18.5 2t42 14.5t53 34t42 64.5t18.5 102v177q0 88 27.5 154.5t65.5 102t92.5 56t94.5 27t83 6.5l63 -2v-193q-16 2 -37 2q-37 0 -69.5 -9t-65.5 -51t-33 -114v-223q0 -172 -139 -248l-29 -12v-4q6 -2 17.5 -6.5t41 -23.5t51 -46t40 -75t18.5 -107v-246 q0 -55 17.5 -93t47.5 -53.5t53.5 -21.5t49.5 -6l37 2v-193q-27 -4 -63 -4q-43 0 -83 6.5t-94.5 26.5t-92.5 56t-65.5 102.5t-27.5 156.5v199q0 166 -137 205z" />
<glyph unicode="|" horiz-adv-x="593" d="M186 -330v1960h222v-1960h-222z" />
<glyph unicode="}" horiz-adv-x="747" d="M59 -6q16 -2 37 -2q166 0 166 174v246q0 59 17.5 107t43 75t50 45t41.5 25l18 6v4q-6 2 -18.5 7t-41 25.5t-51 47t-41 75t-18.5 105.5v223q0 55 -17.5 92t-46 53.5t-52 22.5t-50.5 6l-37 -2v193q27 2 64 2q43 0 83 -6.5t94 -27t92 -56t65.5 -102t27.5 -154.5v-177 q0 -92 44 -146t87 -62l43 -9v-227q-6 0 -18 -2t-42 -14.5t-53.5 -33t-42 -63.5t-18.5 -100v-199q0 -90 -27.5 -156.5t-65.5 -102.5t-92 -56t-94 -26.5t-83 -6.5l-64 4v193z" />
<glyph unicode="~" horiz-adv-x="1249" d="M115 408q0 373 315 372q70 0 126 -28.5t88 -64.5t75 -64.5t88 -28.5q63 0 95 51t32 127h205q0 -373 -314 -373q-70 0 -126 29t-87.5 63.5t-74.5 63.5t-88 29q-63 0 -95 -50.5t-32 -125.5h-207z" />
<glyph unicode="&#xa1;" horiz-adv-x="624" d="M176 -410l23 1033h227l20 -1033h-270zM186 801v241h250v-241h-250z" />
<glyph unicode="&#xa2;" horiz-adv-x="1179" d="M92 727q0 223 120 384t314 194v172h176v-172q135 -25 237.5 -113t152.5 -219l-234 -90q-74 182 -237 182q-119 0 -193 -95.5t-74 -242.5q0 -154 72 -246t195 -92q164 0 237 182l234 -90q-51 -125 -150.5 -219t-239.5 -110v-177h-176v177q-195 33 -314.5 192.5 t-119.5 382.5z" />
<glyph unicode="&#xa3;" horiz-adv-x="1210" d="M104 0v227h119v410h-88v178h88v248q0 180 132 298t335 118q98 0 189.5 -37t134.5 -74l43 -37l-150 -180q-96 88 -211 88q-90 0 -147 -52t-57 -132v-240h362v-178h-362v-410h638v-227h-1026z" />
<glyph unicode="&#xa5;" horiz-adv-x="1257" d="M47 1454h301l191 -387q25 -49 46 -107.5t31 -91.5l11 -34h4q35 125 88 233l190 387h301l-315 -592h201v-155h-281l-51 -101v-67h332v-156h-332v-383h-268v383h-334v156h334v67l-54 101h-280v155h200z" />
<glyph unicode="&#xa7;" horiz-adv-x="962" d="M78 -2l110 176l32 -26q19 -15 80.5 -39.5t119.5 -24.5q92 0 151.5 52t59.5 155q0 35 -19 117l-137 661h205l145 -704q14 -66 15 -105q0 -172 -108.5 -279.5t-311.5 -107.5q-96 0 -181 32t-124 62zM117 1104q0 166 111.5 270.5t308.5 104.5q96 0 181 -32t122 -63l39 -32 l-117 -166q-94 80 -223 80q-94 0 -152.5 -47.5t-58.5 -145.5q0 -35 14 -102l141 -688h-202l-150 704q-14 68 -14 117z" />
<glyph unicode="&#xa8;" horiz-adv-x="1009" d="M217 1591v238h201v-238h-201zM594 1591v238h199v-238h-199z" />
<glyph unicode="&#xa9;" horiz-adv-x="1656" d="M94 727q0 311 214 530.5t517 219.5q307 0 522.5 -219.5t215.5 -530.5t-215 -531.5t-523 -220.5q-303 0 -517 220.5t-214 531.5zM276 727q0 -246 159 -416t390 -170q236 0 396.5 170t160.5 416t-160.5 415t-396.5 169q-231 0 -390 -169t-159 -415zM453 723 q0 166 108.5 282.5t274.5 116.5q201 0 309 -172l22 -43l-155 -73l-6 12q-4 8 -19.5 28.5t-34 36t-48.5 28.5t-62 13q-90 0 -145.5 -65.5t-55.5 -163.5q0 -100 54.5 -164.5t146.5 -64.5q53 0 95 29.5t58 58.5l17 30l155 -71l-11 -24q-7 -15 -34.5 -52t-61.5 -65.5t-94.5 -52 t-129.5 -23.5q-166 0 -274.5 116.5t-108.5 282.5z" />
<glyph unicode="&#xaa;" horiz-adv-x="845" d="M127 985q0 225 379 225h18v15q0 106 -118 106q-37 0 -79 -14t-65 -27l-24 -14l-66 121q10 8 30.5 21.5t89 35t142.5 21.5q133 0 204 -71t71 -196v-411h-172v90h-5q-6 -12 -18 -28.5t-60 -45.5t-108 -29q-88 0 -153.5 54.5t-65.5 146.5zM129 545v139h586v-139h-586z M311 997q0 -31 22.5 -50t59.5 -19q55 0 92 45t37 102v15h-22q-189 -1 -189 -93z" />
<glyph unicode="&#xab;" horiz-adv-x="1196" d="M72 578l336 421h247l-336 -421l336 -420h-247zM530 578l336 421h248l-336 -421l336 -420h-248z" />
<glyph unicode="&#xac;" horiz-adv-x="1234" d="M96 694v201h1000v-602h-209v401h-791z" />
<glyph unicode="&#xad;" horiz-adv-x="882" d="M133 471v227h617v-227h-617z" />
<glyph unicode="&#xae;" horiz-adv-x="1656" d="M94 727q0 311 214 530.5t517 219.5q307 0 522.5 -219.5t215.5 -530.5t-215 -531.5t-523 -220.5q-303 0 -517 220.5t-214 531.5zM276 727q0 -246 159 -416t390 -170q236 0 396.5 170t160.5 416t-160.5 415t-396.5 169q-231 0 -390 -169t-159 -415zM569 356v750h312 q111 0 178 -65.5t67 -172.5q0 -80 -42 -131t-91 -63v-4q8 -8 27 -43l141 -271h-192l-127 277h-99v-277h-174zM743 756h97q51 0 79.5 29.5t28.5 83t-28.5 82t-77.5 28.5h-99v-223z" />
<glyph unicode="&#xaf;" horiz-adv-x="1009" d="M238 1604v178h536v-178h-536z" />
<glyph unicode="&#xb0;" horiz-adv-x="808" d="M72 1157q0 133 97 228.5t237 95.5q137 0 235 -95.5t98 -228.5q0 -135 -97 -228t-236.5 -93t-236.5 93t-97 228zM270 1157q0 -57 39 -96t96.5 -39t97.5 39t40 96q0 55 -40 95t-97.5 40t-96.5 -40t-39 -95z" />
<glyph unicode="&#xb1;" horiz-adv-x="1296" d="M100 483v203h443v485h211v-485h442v-203h-442v-483h-211v483h-443zM129 -174h1040v-201h-1040v201z" />
<glyph unicode="&#xb2;" horiz-adv-x="808" d="M90 950q0 98 44 175t106.5 122t124 83t105.5 80t44 89t-36 77t-91 30q-41 0 -82 -23.5t-59 -46.5l-21 -25l-127 113l12 17q7 11 34.5 39t60.5 49.5t85 39t109 17.5q129 0 220.5 -75t91.5 -204q0 -82 -40 -146.5t-98.5 -104t-117 -72.5t-102.5 -70t-48 -78h418v-170h-625 q-8 57 -8 84z" />
<glyph unicode="&#xb3;" horiz-adv-x="808" d="M74 983l102 137q8 -10 23.5 -26.5t66.5 -43t109 -26.5q61 0 104 37t43 92t-47 86t-113 31h-71l-41 92l162 184l49 49v4q-41 -6 -72 -6h-264v172h573v-125l-202 -229q100 -18 161.5 -86t61.5 -174q0 -125 -94.5 -215t-245.5 -90q-92 0 -168 33.5t-107 68.5z" />
<glyph unicode="&#xb4;" horiz-adv-x="1009" d="M293 1550l156 279h268l-215 -279h-209z" />
<glyph unicode="&#xb5;" horiz-adv-x="1288" d="M158 -410v1454h258v-618q0 -104 35.5 -158.5t126.5 -54.5q135 0 213.5 102.5t78.5 249.5v479h260v-1044h-249v127l4 66h-6l-12 -24q-7 -15 -37.5 -52t-68.5 -65.5t-102.5 -52.5t-140.5 -24q-47 0 -84 10.5t-49 22.5l-14 10h-4q14 -100 14 -170v-258h-223z" />
<glyph unicode="&#x3bc;" horiz-adv-x="1288" d="M158 -410v1454h258v-618q0 -104 35.5 -158.5t126.5 -54.5q135 0 213.5 102.5t78.5 249.5v479h260v-1044h-249v127l4 66h-6l-12 -24q-7 -15 -37.5 -52t-68.5 -65.5t-102.5 -52.5t-140.5 -24q-47 0 -84 10.5t-49 22.5l-14 10h-4q14 -100 14 -170v-258h-223z" />
<glyph unicode="&#xb6;" horiz-adv-x="1255" d="M74 975q0 201 141 340t340 139h625v-227h-437v-1329h-188v596q-199 0 -340 140t-141 341zM870 -102v1216h191v-1216h-191z" />
<glyph unicode="&#xb7;" horiz-adv-x="567" d="M158 469v258h252v-258h-252z" />
<glyph unicode="&#xb8;" horiz-adv-x="1009" d="M332 -268q43 -16 88 -17q90 0 90 58q0 55 -98 55l-43 -4l63 227l119 -26v-15l-23 -100q68 -8 109 -47t41 -109q0 -94 -63.5 -137t-157.5 -43q-31 0 -63 4t-46 8l-16 2v144z" />
<glyph unicode="&#xb9;" horiz-adv-x="808" d="M117 1542l231 223h172v-729h187v-170h-570v170h189v424l4 58h-4q-8 -18 -31 -39l-64 -60z" />
<glyph unicode="&#xba;" horiz-adv-x="935" d="M109 1133q0 147 104 244.5t254 97.5q152 0 256 -97.5t104 -244.5q0 -150 -104.5 -248.5t-255.5 -98.5q-150 0 -254 98.5t-104 248.5zM139 545v139h660v-139h-660zM295 1133q0 -80 50 -131.5t122 -51.5q74 0 124 51.5t50 131.5q0 78 -50 129t-124 51q-72 0 -122 -51 t-50 -129z" />
<glyph unicode="&#xbb;" horiz-adv-x="1198" d="M82 158l336 420l-336 421h248l336 -421l-336 -420h-248zM543 158l336 420l-336 421h248l335 -421l-335 -420h-248z" />
<glyph unicode="&#xbc;" horiz-adv-x="2000" d="M115 1231l231 223h172v-729h187v-170h-570v170h189v424l4 57h-4q-8 -18 -31 -39l-64 -59zM563 0l688 1454h189l-686 -1454h-191zM1214 203v131l388 565h221v-528h119v-168h-119v-203h-191v203h-418zM1413 371h219v225l6 113h-4q-25 -55 -53 -97l-168 -237v-4z" />
<glyph unicode="&#xbd;" horiz-adv-x="2004" d="M88 1231l231 223h173v-729h186v-170h-569v170h188v424l4 57h-4q-8 -18 -31 -39l-63 -59zM543 0l688 1454h188l-686 -1454h-190zM1251 84q0 84 32 151.5t79 108.5t101.5 80t101.5 66.5t78.5 64.5t31.5 78q0 47 -35.5 76.5t-91.5 29.5q-41 0 -82 -23.5t-61 -47.5l-19 -23 l-126 113l11 17q7 11 34.5 39t60.5 49.5t85 39t110 17.5q129 0 220 -75t91 -204q0 -82 -40 -146.5t-98.5 -104.5t-116.5 -72.5t-102.5 -69.5t-48.5 -78h418v-170h-624q-9 57 -9 84z" />
<glyph unicode="&#xbe;" horiz-adv-x="2019" d="M68 672l102 137q8 -10 23.5 -26.5t66.5 -43t109 -26.5q61 0 104 36.5t43 92t-47 86t-113 30.5h-71l-41 93l162 184l49 49v4q-41 -6 -72 -6h-264v172h573v-125l-203 -229q100 -18 162 -86t62 -174q0 -125 -94.5 -215t-245.5 -90q-92 0 -168 33.5t-107 68.5zM555 0 l688 1454h189l-687 -1454h-190zM1206 203v131l387 565h222v-528h118v-168h-118v-203h-191v203h-418zM1405 371h219v225l6 113h-4q-25 -55 -53 -97l-168 -237v-4z" />
<glyph unicode="&#xbf;" horiz-adv-x="940" d="M66 -45q0 92 36.5 168t89 125l105.5 94t90 98.5t37 112.5v72h250v-90q0 -82 -35 -151t-84 -115l-98 -88q-49 -42 -84 -93t-35 -108q0 -72 57.5 -122.5t141.5 -50.5q51 0 105 23t83 43l29 23l145 -181q-16 -16 -47 -40.5t-131 -64.5t-207 -40q-182 0 -315 104.5 t-133 280.5zM424 803v241h250v-241h-250z" />
<glyph unicode="&#xc0;" horiz-adv-x="1304" d="M2 0l512 1454h277l512 -1454h-273l-123 373h-510l-123 -373h-272zM340 1829h268l156 -279h-211zM461 588h381l-129 389l-58 225h-4q-33 -143 -61 -225z" />
<glyph unicode="&#xc1;" horiz-adv-x="1304" d="M2 0l512 1454h277l512 -1454h-273l-123 373h-510l-123 -373h-272zM461 588h381l-129 389l-58 225h-4q-33 -143 -61 -225zM541 1550l155 279h269l-215 -279h-209z" />
<glyph unicode="&#xc2;" horiz-adv-x="1304" d="M2 0l512 1454h277l512 -1454h-273l-123 373h-510l-123 -373h-272zM334 1550l188 279h260l191 -279h-215l-103 166h-4l-102 -166h-215zM461 588h381l-129 389l-58 225h-4q-33 -143 -61 -225z" />
<glyph unicode="&#xc3;" horiz-adv-x="1304" d="M2 0l512 1454h277l512 -1454h-273l-123 373h-510l-123 -373h-272zM281 1552q0 281 229 281q59 0 105.5 -34t83 -66.5t69.5 -32.5q80 0 80 127h176q0 -281 -229 -281q-59 0 -105.5 34t-83.5 66.5t-69 32.5q-78 0 -78 -127h-178zM461 588h381l-129 389l-58 225h-4 q-33 -143 -61 -225z" />
<glyph unicode="&#xc4;" horiz-adv-x="1304" d="M2 0l512 1454h277l512 -1454h-273l-123 373h-510l-123 -373h-272zM365 1591v238h200v-238h-200zM461 588h381l-129 389l-58 225h-4q-33 -143 -61 -225zM741 1591v238h199v-238h-199z" />
<glyph unicode="&#xc5;" horiz-adv-x="1304" d="M2 0l512 1454h277l512 -1454h-273l-123 373h-510l-123 -373h-272zM459 1686q0 76 57 118.5t137 42.5q78 0 135.5 -43t57.5 -118q0 -74 -57.5 -117t-135.5 -43q-80 0 -137 43t-57 117zM461 588h381l-129 389l-58 225h-4q-33 -143 -61 -225zM584 1686q0 -31 18.5 -50.5 t50.5 -19.5q31 0 50.5 19.5t19.5 50.5q0 33 -19.5 52t-50 19t-50 -19t-19.5 -52z" />
<glyph unicode="&#xc6;" horiz-adv-x="1849" d="M-8 0l604 1454h1133v-227h-609v-381h492v-228h-492v-391h639v-227h-901v623h-346l-246 -623h-274zM596 838h262v389h-108z" />
<glyph unicode="&#xc7;" horiz-adv-x="1470" d="M88 733q0 317 214 531.5t534 214.5q98 0 190 -20.5t152.5 -49.5t106.5 -58.5t67 -50.5l20 -20l-127 -197q-18 16 -52 42t-138.5 69t-206.5 43q-223 0 -355.5 -144.5t-132.5 -355.5q0 -215 135.5 -367.5t354.5 -152.5q217 0 397 162l25 22l139 -190l-22 -24 q-14 -15 -65.5 -54t-109 -68.5t-149.5 -56t-188 -31.5l-15 -67q68 -8 109 -47t41 -109q0 -94 -63.5 -137t-157.5 -43q-31 0 -63 4t-48 8l-14 2v144q43 -16 88 -17q90 0 90 58q0 55 -99 55l-43 -4l43 158q-293 31 -475 241.5t-182 509.5z" />
<glyph unicode="&#xc8;" horiz-adv-x="1177" d="M184 0v1454h871v-227h-606v-381h489v-228h-489v-391h638v-227h-903zM328 1829h268l156 -279h-211z" />
<glyph unicode="&#xc9;" horiz-adv-x="1177" d="M184 0v1454h871v-227h-606v-381h489v-228h-489v-391h638v-227h-903zM528 1550l156 279h268l-215 -279h-209z" />
<glyph unicode="&#xca;" horiz-adv-x="1177" d="M184 0v1454h871v-227h-606v-381h489v-228h-489v-391h638v-227h-903zM322 1550l188 279h260l191 -279h-216l-102 166h-4l-102 -166h-215z" />
<glyph unicode="&#xcb;" horiz-adv-x="1177" d="M184 0v1454h871v-227h-606v-381h489v-228h-489v-391h638v-227h-903zM352 1591v238h201v-238h-201zM729 1591v238h199v-238h-199z" />
<glyph unicode="&#xcc;" horiz-adv-x="632" d="M6 1829h268l156 -279h-211zM184 0v1454h265v-1454h-265z" />
<glyph unicode="&#xcd;" horiz-adv-x="632" d="M184 0v1454h265v-1454h-265zM205 1550l155 279h269l-215 -279h-209z" />
<glyph unicode="&#xce;" horiz-adv-x="632" d="M-2 1550l188 279h260l191 -279h-215l-103 166h-4l-102 -166h-215zM184 0v1454h265v-1454h-265z" />
<glyph unicode="&#xcf;" horiz-adv-x="632" d="M31 1591v238h200v-238h-200zM184 0v1454h265v-1454h-265zM408 1591v238h198v-238h-198z" />
<glyph unicode="&#xd0;" horiz-adv-x="1552" d="M104 616v215h119v623h496q340 0 540.5 -192.5t200.5 -532.5t-200.5 -534.5t-540.5 -194.5h-496v616h-119zM487 227h218q225 0 354 130t129 372q0 238 -130 368t-353 130h-218v-396h271v-215h-271v-389z" />
<glyph unicode="&#xd1;" horiz-adv-x="1556" d="M184 0v1454h265l550 -840q25 -37 55.5 -93t47.5 -95l18 -37h4q-14 139 -14 225v840h262v-1454h-262l-551 838q-25 37 -54 93l-48 93l-19 39h-4q14 -139 15 -225v-838h-265zM408 1552q0 281 229 281q59 0 105 -34t83 -66.5t70 -32.5q80 0 80 127h176q0 -281 -229 -281 q-59 0 -105.5 34t-83.5 66.5t-69 32.5q-78 0 -78 -127h-178z" />
<glyph unicode="&#xd2;" horiz-adv-x="1671" d="M84 737q0 313 216 527.5t535.5 214.5t535.5 -214t216 -528q0 -322 -216 -542t-535.5 -220t-535.5 220t-216 542zM356 737q0 -223 139.5 -371.5t340 -148.5t340 148.5t139.5 371.5q0 213 -139.5 356.5t-340 143.5t-340 -143.5t-139.5 -356.5zM524 1829h269l155 -279h-211z " />
<glyph unicode="&#xd3;" horiz-adv-x="1671" d="M84 737q0 313 216 527.5t535.5 214.5t535.5 -214t216 -528q0 -322 -216 -542t-535.5 -220t-535.5 220t-216 542zM356 737q0 -223 139.5 -371.5t340 -148.5t340 148.5t139.5 371.5q0 213 -139.5 356.5t-340 143.5t-340 -143.5t-139.5 -356.5zM723 1550l156 279h268 l-215 -279h-209z" />
<glyph unicode="&#xd4;" horiz-adv-x="1671" d="M84 737q0 313 216 527.5t535.5 214.5t535.5 -214t216 -528q0 -322 -216 -542t-535.5 -220t-535.5 220t-216 542zM356 737q0 -223 139.5 -371.5t340 -148.5t340 148.5t139.5 371.5q0 213 -139.5 356.5t-340 143.5t-340 -143.5t-139.5 -356.5zM516 1550l189 279h260 l190 -279h-215l-102 166h-4l-103 -166h-215z" />
<glyph unicode="&#xd5;" horiz-adv-x="1671" d="M84 737q0 313 216 527.5t535.5 214.5t535.5 -214t216 -528q0 -322 -216 -542t-535.5 -220t-535.5 220t-216 542zM356 737q0 -223 139.5 -371.5t340 -148.5t340 148.5t139.5 371.5q0 213 -139.5 356.5t-340 143.5t-340 -143.5t-139.5 -356.5zM465 1552q0 281 229 281 q59 0 105.5 -34t83.5 -66.5t69 -32.5q80 0 80 127h176q0 -281 -229 -281q-59 0 -105.5 34t-83 66.5t-69.5 32.5q-78 0 -78 -127h-178z" />
<glyph unicode="&#xd6;" horiz-adv-x="1671" d="M84 737q0 313 216 527.5t535.5 214.5t535.5 -214t216 -528q0 -322 -216 -542t-535.5 -220t-535.5 220t-216 542zM356 737q0 -223 139.5 -371.5t340 -148.5t340 148.5t139.5 371.5q0 213 -139.5 356.5t-340 143.5t-340 -143.5t-139.5 -356.5zM549 1591v238h201v-238h-201z M926 1591v238h198v-238h-198z" />
<glyph unicode="&#xd7;" horiz-adv-x="1273" d="M96 141l404 445l-404 442l142 143l399 -438l399 438l142 -143l-406 -442l406 -445l-142 -141l-399 438l-399 -438z" />
<glyph unicode="&#xd8;" horiz-adv-x="1679" d="M90 737q0 313 216 527.5t536 214.5q199 0 375 -95l88 123l116 -80l-88 -122q123 -102 191.5 -250t68.5 -318q0 -322 -216 -542t-535 -220q-217 0 -391 105l-97 -133l-116 80l100 137q-248 225 -248 573zM362 737q0 -213 127 -360l580 803q-104 57 -227 57 q-201 0 -340.5 -143.5t-139.5 -356.5zM598 285q113 -68 244 -68q201 0 340 148.5t139 371.5q0 213 -139 357z" />
<glyph unicode="&#xd9;" horiz-adv-x="1501" d="M164 522v932h264v-932q0 -143 87 -224t234.5 -81t235.5 81t88 226v930h264v-932q0 -244 -161.5 -395.5t-423.5 -151.5q-264 0 -426 151.5t-162 395.5zM438 1829h269l155 -279h-211z" />
<glyph unicode="&#xda;" horiz-adv-x="1501" d="M164 522v932h264v-932q0 -143 87 -224t234.5 -81t235.5 81t88 226v930h264v-932q0 -244 -161.5 -395.5t-423.5 -151.5q-264 0 -426 151.5t-162 395.5zM637 1550l156 279h268l-215 -279h-209z" />
<glyph unicode="&#xdb;" horiz-adv-x="1501" d="M164 522v932h264v-932q0 -143 87 -224t234.5 -81t235.5 81t88 226v930h264v-932q0 -244 -161.5 -395.5t-423.5 -151.5q-264 0 -426 151.5t-162 395.5zM430 1550l188 279h261l190 -279h-215l-102 166h-4l-103 -166h-215z" />
<glyph unicode="&#xdc;" horiz-adv-x="1501" d="M164 522v932h264v-932q0 -143 87 -224t234.5 -81t235.5 81t88 226v930h264v-932q0 -244 -161.5 -395.5t-423.5 -151.5q-264 0 -426 151.5t-162 395.5zM463 1591v238h201v-238h-201zM840 1591v238h198v-238h-198z" />
<glyph unicode="&#xdd;" horiz-adv-x="1239" d="M4 1454h299l227 -428q10 -18 20 -39l17 -39l17 -37l14 -32q6 -14 10 -25.5l6 -17.5l4 -5h5q41 104 88 195l225 428h299l-483 -846v-608h-265v608zM508 1550l156 279h268l-215 -279h-209z" />
<glyph unicode="&#xde;" horiz-adv-x="1259" d="M184 0v1454h262v-235h297q205 0 334 -131.5t129 -342t-129 -344t-334 -133.5h-297v-268h-262zM446 496h248q115 0 179.5 67.5t64.5 182t-63.5 180t-176.5 65.5h-252v-495z" />
<glyph unicode="&#xdf;" horiz-adv-x="1236" d="M143 1083q0 184 140.5 290t332.5 106q178 0 301 -102.5t123 -254.5q0 -63 -28.5 -118.5t-63.5 -87t-63.5 -73.5t-28.5 -81t52.5 -84t113.5 -86t113.5 -115t52.5 -162q0 -158 -106.5 -243.5t-262.5 -85.5q-84 0 -152.5 13t-97.5 26l-26 14v221q106 -53 237 -53 q63 0 104.5 29.5t41.5 93.5q0 45 -52.5 93t-114 87t-113.5 104.5t-52 141.5q0 53 28.5 105t63.5 86t63.5 80t28.5 91q0 57 -45 98t-125 41q-86 0 -145.5 -49t-59.5 -143v-1065h-260v1083z" />
<glyph unicode="&#xe0;" horiz-adv-x="1093" d="M55 301q0 80 33 141.5t91.5 98.5t120.5 61.5t139 35.5t128 14t107 3h35v15q0 184 -201 184q-145 -2 -287 -100l-98 186q18 14 52 35.5t140.5 57.5t216.5 36q207 0 321 -108.5t114 -307.5v-653h-240v86l4 74h-4q2 0 -8 -19.5t-35 -46t-59.5 -53.5t-92 -46.5t-122.5 -19.5 q-147 0 -251 88t-104 238zM231 1452h269l155 -278h-211zM317 313q0 -55 41 -95t117 -40q98 0 167 87t69 188v24h-45q-349 0 -349 -164z" />
<glyph unicode="&#xe1;" horiz-adv-x="1093" d="M55 301q0 80 33 141.5t91.5 98.5t120.5 61.5t139 35.5t128 14t107 3h35v15q0 184 -201 184q-145 -2 -287 -100l-98 186q18 14 52 35.5t140.5 57.5t216.5 36q207 0 321 -108.5t114 -307.5v-653h-240v86l4 74h-4q2 0 -8 -19.5t-35 -46t-59.5 -53.5t-92 -46.5t-122.5 -19.5 q-147 0 -251 88t-104 238zM317 313q0 -55 41 -95t117 -40q98 0 167 87t69 188v24h-45q-349 0 -349 -164zM428 1174l156 278h268l-215 -278h-209z" />
<glyph unicode="&#xe2;" horiz-adv-x="1093" d="M55 301q0 80 33 141.5t91.5 98.5t120.5 61.5t139 35.5t128 14t107 3h35v15q0 184 -201 184q-145 -2 -287 -100l-98 186q18 14 52 35.5t140.5 57.5t216.5 36q207 0 321 -108.5t114 -307.5v-653h-240v86l4 74h-4q2 0 -8 -19.5t-35 -46t-59.5 -53.5t-92 -46.5t-122.5 -19.5 q-147 0 -251 88t-104 238zM221 1174l189 278h260l190 -278h-215l-102 165h-4l-103 -165h-215zM317 313q0 -55 41 -95t117 -40q98 0 167 87t69 188v24h-45q-349 0 -349 -164z" />
<glyph unicode="&#xe3;" horiz-adv-x="1093" d="M55 301q0 80 33 141.5t91.5 98.5t120.5 61.5t139 35.5t128 14t107 3h35v15q0 184 -201 184q-145 -2 -287 -100l-98 186q18 14 52 35.5t140.5 57.5t216.5 36q207 0 321 -108.5t114 -307.5v-653h-240v86l4 74h-4q2 0 -8 -19.5t-35 -46t-59.5 -53.5t-92 -46.5t-122.5 -19.5 q-147 0 -251 88t-104 238zM170 1176q0 281 229 280q59 0 105.5 -33.5t83.5 -66.5t69 -33q80 0 80 127h176q0 -281 -229 -281q-59 0 -105.5 34t-83 67t-69.5 33q-78 0 -78 -127h-178zM317 313q0 -55 41 -95t117 -40q98 0 167 87t69 188v24h-45q-349 0 -349 -164z" />
<glyph unicode="&#xe4;" horiz-adv-x="1093" d="M55 301q0 80 33 141.5t91.5 98.5t120.5 61.5t139 35.5t128 14t107 3h35v15q0 184 -201 184q-145 -2 -287 -100l-98 186q18 14 52 35.5t140.5 57.5t216.5 36q207 0 321 -108.5t114 -307.5v-653h-240v86l4 74h-4q2 0 -8 -19.5t-35 -46t-59.5 -53.5t-92 -46.5t-122.5 -19.5 q-147 0 -251 88t-104 238zM254 1214v238h201v-238h-201zM317 313q0 -55 41 -95t117 -40q98 0 167 87t69 188v24h-45q-349 0 -349 -164zM631 1214v238h198v-238h-198z" />
<glyph unicode="&#xe5;" horiz-adv-x="1093" d="M55 301q0 80 33 141.5t91.5 98.5t120.5 61.5t139 35.5t128 14t107 3h35v15q0 184 -201 184q-145 -2 -287 -100l-98 186q18 14 52 35.5t140.5 57.5t216.5 36q207 0 321 -108.5t114 -307.5v-653h-240v86l4 74h-4q2 0 -8 -19.5t-35 -46t-59.5 -53.5t-92 -46.5t-122.5 -19.5 q-147 0 -251 88t-104 238zM317 313q0 -55 41 -95t117 -40q98 0 167 87t69 188v24h-45q-349 0 -349 -164zM346 1309q0 76 57.5 118.5t137.5 42.5q78 0 135 -43t57 -118q0 -74 -57.5 -117t-134.5 -43q-80 0 -137.5 43t-57.5 117zM471 1309q0 -31 18.5 -50.5t51.5 -19.5 q31 0 50 19.5t19 50.5q0 33 -19.5 52t-50 19t-50 -19t-19.5 -52z" />
<glyph unicode="&#xe6;" horiz-adv-x="1746" d="M55 301q0 78 31 138.5t86 97t117.5 62.5t137.5 37t131 15t116 4h35v15q0 184 -203 184q-143 -2 -287 -100l-96 184q18 14 50 35.5t137.5 58.5t213.5 37q244 0 340 -154h4q125 154 349 154q215 0 336.5 -145.5t121.5 -366.5l-4 -80h-715q12 -139 97.5 -209.5t210.5 -70.5 q156 0 292 108l7 4l102 -184q-6 -6 -18.5 -16.5t-54.5 -36t-87 -45t-115.5 -36t-144.5 -16.5q-299 0 -438 230h-4q-10 -25 -35 -57.5t-70 -73.5t-120.5 -69t-165.5 -28q-150 0 -253.5 88.5t-103.5 235.5zM317 313q0 -57 41 -96t119 -39q100 0 168 87t68 190v22h-74 q-322 0 -322 -164zM965 655h450q-2 100 -60.5 155.5t-142.5 55.5q-206 0 -247 -211z" />
<glyph unicode="&#xe7;" horiz-adv-x="1118" d="M70 522q0 229 156.5 388t410.5 159q236 0 383 -137l18 -19l-114 -178q-12 12 -35 30.5t-93.5 50.5t-144.5 32q-141 0 -229 -93t-88 -230.5t90 -232.5t235 -95q78 0 155 32.5t116 65.5l37 35l100 -185l-16 -16q-10 -10 -49 -38t-81 -49.5t-111 -40.5t-140 -24l-15 -67 q68 -8 109 -47t41 -109q0 -94 -63.5 -137t-157.5 -43q-31 0 -63 4t-46 8l-16 2v144q43 -16 88 -17q90 0 90 58q0 55 -98 55l-43 -4l43 160q-213 29 -341 179t-128 359z" />
<glyph unicode="&#xe8;" horiz-adv-x="1134" d="M70 522q0 242 148.5 394.5t381.5 152.5q219 0 341 -140.5t122 -355.5l-6 -100h-721q12 -131 101 -203.5t212 -72.5q74 0 149.5 28.5t114.5 57.5l37 28l101 -186q-6 -6 -18.5 -16.5t-54.5 -36t-87 -45t-115.5 -36t-144.5 -16.5q-252 0 -406.5 159t-154.5 388zM285 1452 h268l156 -279h-211zM344 651h457q-2 102 -60.5 159.5t-146.5 57.5q-100 0 -166 -57.5t-84 -159.5z" />
<glyph unicode="&#xe9;" horiz-adv-x="1134" d="M70 522q0 242 148.5 394.5t381.5 152.5q219 0 341 -140.5t122 -355.5l-6 -100h-721q12 -131 101 -203.5t212 -72.5q74 0 149.5 28.5t114.5 57.5l37 28l101 -186q-6 -6 -18.5 -16.5t-54.5 -36t-87 -45t-115.5 -36t-144.5 -16.5q-252 0 -406.5 159t-154.5 388zM344 651h457 q-2 102 -60.5 159.5t-146.5 57.5q-100 0 -166 -57.5t-84 -159.5zM481 1173l156 279h268l-215 -279h-209z" />
<glyph unicode="&#xea;" horiz-adv-x="1134" d="M70 522q0 242 148.5 394.5t381.5 152.5q219 0 341 -140.5t122 -355.5l-6 -100h-721q12 -131 101 -203.5t212 -72.5q74 0 149.5 28.5t114.5 57.5l37 28l101 -186q-6 -6 -18.5 -16.5t-54.5 -36t-87 -45t-115.5 -36t-144.5 -16.5q-252 0 -406.5 159t-154.5 388zM274 1173 l189 279h260l190 -279h-215l-102 166h-4l-103 -166h-215zM344 651h457q-2 102 -60.5 159.5t-146.5 57.5q-100 0 -166 -57.5t-84 -159.5z" />
<glyph unicode="&#xeb;" horiz-adv-x="1134" d="M70 522q0 242 148.5 394.5t381.5 152.5q219 0 341 -140.5t122 -355.5l-6 -100h-721q12 -131 101 -203.5t212 -72.5q74 0 149.5 28.5t114.5 57.5l37 28l101 -186q-6 -6 -18.5 -16.5t-54.5 -36t-87 -45t-115.5 -36t-144.5 -16.5q-252 0 -406.5 159t-154.5 388zM307 1214 v238h201v-238h-201zM344 651h457q-2 102 -60.5 159.5t-146.5 57.5q-100 0 -166 -57.5t-84 -159.5zM684 1214v238h199v-238h-199z" />
<glyph unicode="&#xec;" horiz-adv-x="546" d="M-39 1452h268l156 -278h-211zM143 0v1044h260v-1044h-260z" />
<glyph unicode="&#xed;" horiz-adv-x="546" d="M143 0v1044h260v-1044h-260zM160 1174l155 278h269l-215 -278h-209z" />
<glyph unicode="&#xee;" horiz-adv-x="546" d="M-47 1174l188 278h260l191 -278h-215l-103 165h-4l-102 -165h-215zM143 0v1044h260v-1044h-260z" />
<glyph unicode="&#xef;" horiz-adv-x="546" d="M-14 1214v238h200v-238h-200zM143 0v1044h260v-1044h-260zM362 1214v238h199v-238h-199z" />
<glyph unicode="&#xf0;" horiz-adv-x="1198" d="M68 485q0 193 130 330t351 137q57 0 109.5 -15t74.5 -30l25 -14h4q-59 131 -193 217l-379 -164l-12 154l228 100q-100 49 -236 82l72 205q258 -57 442 -170l303 129l12 -152l-180 -80q281 -246 281 -645q0 -86 -17.5 -169t-58.5 -160.5t-101.5 -136t-151.5 -93.5 t-204 -35q-229 0 -364 151.5t-135 358.5zM330 479q0 -117 63.5 -200.5t179.5 -83.5q131 0 198 98t67 229q0 100 -65.5 164t-176.5 64q-127 0 -196.5 -80t-69.5 -191z" />
<glyph unicode="&#xf1;" horiz-adv-x="1255" d="M143 0v1044h250v-120l-4 -72h4q43 84 136.5 150.5t234.5 66.5q362 0 362 -397v-672h-258v618q0 104 -35.5 158.5t-130.5 54.5q-102 0 -175.5 -58t-104.5 -155q-18 -55 -19 -139v-479h-260zM276 1176q0 281 230 280q59 0 105 -33.5t83 -66.5t70 -33q80 0 80 127h176 q0 -281 -229 -281q-59 0 -105.5 34t-83.5 67t-70 33q-78 0 -77 -127h-179z" />
<glyph unicode="&#xf2;" d="M66 522.5q0 237.5 165.5 392t407.5 154.5t408.5 -154.5t166.5 -392t-165.5 -392.5t-407.5 -155q-244 0 -409.5 155t-165.5 392.5zM328 1452h268l156 -278h-211zM330 522q0 -143 90 -234t221 -91q129 0 219 91t90 234q0 141 -90 233.5t-219 92.5t-220 -92.5t-91 -233.5z " />
<glyph unicode="&#xf3;" d="M66 522.5q0 237.5 165.5 392t407.5 154.5t408.5 -154.5t166.5 -392t-165.5 -392.5t-407.5 -155q-244 0 -409.5 155t-165.5 392.5zM330 522q0 -143 90 -234t221 -91q129 0 219 91t90 234q0 141 -90 233.5t-219 92.5t-220 -92.5t-91 -233.5zM528 1174l156 278h268 l-215 -278h-209z" />
<glyph unicode="&#xf4;" d="M66 522.5q0 237.5 165.5 392t407.5 154.5t408.5 -154.5t166.5 -392t-165.5 -392.5t-407.5 -155q-244 0 -409.5 155t-165.5 392.5zM322 1174l188 278h260l191 -278h-216l-102 165h-4l-102 -165h-215zM330 522q0 -143 90 -234t221 -91q129 0 219 91t90 234q0 141 -90 233.5 t-219 92.5t-220 -92.5t-91 -233.5z" />
<glyph unicode="&#xf5;" d="M66 522.5q0 237.5 165.5 392t407.5 154.5t408.5 -154.5t166.5 -392t-165.5 -392.5t-407.5 -155q-244 0 -409.5 155t-165.5 392.5zM268 1176q0 281 230 280q59 0 105 -33.5t83 -66.5t70 -33q80 0 80 127h176q0 -281 -230 -281q-59 0 -105 34t-83 67t-70 33q-78 0 -78 -127 h-178zM330 522q0 -143 90 -234t221 -91q129 0 219 91t90 234q0 141 -90 233.5t-219 92.5t-220 -92.5t-91 -233.5z" />
<glyph unicode="&#xf6;" d="M66 522.5q0 237.5 165.5 392t407.5 154.5t408.5 -154.5t166.5 -392t-165.5 -392.5t-407.5 -155q-244 0 -409.5 155t-165.5 392.5zM330 522q0 -143 90 -234t221 -91q129 0 219 91t90 234q0 141 -90 233.5t-219 92.5t-220 -92.5t-91 -233.5zM352 1214v238h201v-238h-201z M729 1214v238h199v-238h-199z" />
<glyph unicode="&#xf7;" d="M106 483v203h1068v-203h-1068zM522 55v221h234v-221h-234zM522 895v221h234v-221h-234z" />
<glyph unicode="&#xf8;" d="M66 522q0 238 165.5 392.5t407.5 154.5q147 0 274 -63l82 114l113 -78l-80 -112q186 -156 186 -408q0 -238 -165.5 -392.5t-407.5 -154.5q-133 0 -260 54l-84 -117l-113 80l80 110q-198 156 -198 420zM330 522q0 -131 78 -221l368 514q-66 33 -135 33q-129 0 -220 -92.5 t-91 -233.5zM518 221q59 -25 123 -24q129 0 219 91t90 234q0 121 -67 207z" />
<glyph unicode="&#xf9;" horiz-adv-x="1247" d="M129 373v671h260v-618q0 -104 36 -158.5t126 -54.5q135 0 214 102.5t79 249.5v479h260v-1044h-250v119l4 74h-4q-43 -88 -140.5 -153t-221.5 -65q-363 1 -363 398zM305 1452h268l156 -278h-211z" />
<glyph unicode="&#xfa;" horiz-adv-x="1247" d="M129 373v671h260v-618q0 -104 36 -158.5t126 -54.5q135 0 214 102.5t79 249.5v479h260v-1044h-250v119l4 74h-4q-43 -88 -140.5 -153t-221.5 -65q-363 1 -363 398zM504 1174l155 278h269l-215 -278h-209z" />
<glyph unicode="&#xfb;" horiz-adv-x="1247" d="M129 373v671h260v-618q0 -104 36 -158.5t126 -54.5q135 0 214 102.5t79 249.5v479h260v-1044h-250v119l4 74h-4q-43 -88 -140.5 -153t-221.5 -65q-363 1 -363 398zM297 1174l188 278h260l191 -278h-215l-103 165h-4l-102 -165h-215z" />
<glyph unicode="&#xfc;" horiz-adv-x="1247" d="M129 373v671h260v-618q0 -104 36 -158.5t126 -54.5q135 0 214 102.5t79 249.5v479h260v-1044h-250v119l4 74h-4q-43 -88 -140.5 -153t-221.5 -65q-363 1 -363 398zM330 1214v238h200v-238h-200zM707 1214v238h198v-238h-198z" />
<glyph unicode="&#xfd;" horiz-adv-x="1067" d="M-16 1044h292l220 -602l39 -141h4q16 82 34 137l205 606h285l-467 -1202q-53 -137 -152.5 -204.5t-224.5 -67.5q-55 0 -109.5 16.5t-80.5 32.5l-27 19l86 194q57 -43 117 -43q123 0 180 135l39 92zM424 1174l156 278h268l-215 -278h-209z" />
<glyph unicode="&#xfe;" horiz-adv-x="1249" d="M143 -410v1864h260v-446l-4 -86h4q111 147 308 147q211 0 340 -154.5t129 -392t-132.5 -392.5t-340.5 -155q-98 0 -174 36t-103 71l-27 35h-4q4 -37 4 -90v-437h-260zM395 520q0 -152 72 -238.5t192 -86.5q113 0 186 92t73 235.5t-71 234.5t-185 91q-117 0 -192 -80 t-75 -248z" />
<glyph unicode="&#xff;" horiz-adv-x="1067" d="M-16 1044h292l220 -602l39 -141h4q16 82 34 137l205 606h285l-467 -1202q-53 -137 -152.5 -204.5t-224.5 -67.5q-55 0 -109.5 16.5t-80.5 32.5l-27 19l86 194q57 -43 117 -43q123 0 180 135l39 92zM250 1214v238h201v-238h-201zM627 1214v238h198v-238h-198z" />
<glyph unicode="&#x152;" horiz-adv-x="1982" d="M82 729q0 313 220 527t544 214q61 0 142 -8t116 -8h758v-227h-609v-381h492v-228h-492v-391h641v-227h-790q-35 0 -116 -9t-142 -9q-322 0 -543 217t-221 530zM354 729q0 -219 140.5 -369.5t351.5 -150.5q37 0 73.5 4t55.5 8l16 2v1008q-61 14 -145 14 q-211 0 -351.5 -149.5t-140.5 -366.5z" />
<glyph unicode="&#x153;" horiz-adv-x="2015" d="M68 520.5q0 241.5 163.5 395t401.5 153.5q279 0 432 -215h4q135 215 412 215q219 0 341 -140.5t122 -355.5l-7 -100h-718q14 -135 101 -205.5t210 -70.5q74 0 149.5 28.5t114.5 57.5l37 28l100 -186q-6 -6 -18 -16.5t-54 -36t-87.5 -45t-116 -36t-144.5 -16.5 q-293 0 -436 222h-4q-156 -221 -438 -222q-240 0 -402.5 152t-162.5 393.5zM330 520.5q0 -145.5 90 -234.5t221 -89q129 0 219 90t90 235.5t-90 235.5t-219 90q-131 0 -221 -91t-90 -236.5zM1225 651h456q-2 100 -59 158.5t-143 58.5q-100 0 -168 -57.5t-86 -159.5z" />
<glyph unicode="&#x178;" horiz-adv-x="1239" d="M4 1454h299l227 -428q10 -18 20 -39l17 -39l17 -37l14 -32q6 -14 10 -25.5l6 -17.5l4 -5h5q41 104 88 195l225 428h299l-483 -846v-608h-265v608zM334 1591v238h201v-238h-201zM711 1591v238h198v-238h-198z" />
<glyph unicode="&#x2c6;" horiz-adv-x="1011" d="M186 1550l189 279h260l190 -279h-215l-102 166h-4l-103 -166h-215z" />
<glyph unicode="&#x2dc;" horiz-adv-x="1009" d="M133 1552q0 281 229 281q59 0 105.5 -34t83.5 -66.5t70 -32.5q80 0 79 127h177q0 -281 -230 -281q-59 0 -105 34t-83 66.5t-70 32.5q-78 0 -78 -127h-178z" />
<glyph unicode="&#x2013;" horiz-adv-x="1452" d="M160 483v203h1132v-203h-1132z" />
<glyph unicode="&#x2014;" horiz-adv-x="1861" d="M160 483v203h1542v-203h-1542z" />
<glyph unicode="&#x2018;" horiz-adv-x="485" d="M82 1032l154 447h182l-96 -447h-240z" />
<glyph unicode="&#x2019;" horiz-adv-x="473" d="M90 1030l96 449h240l-152 -449h-184z" />
<glyph unicode="&#x201a;" horiz-adv-x="512" d="M66 -182l96 446h233l-153 -446h-176z" />
<glyph unicode="&#x201c;" horiz-adv-x="821" d="M82 1032l154 447h184l-98 -447h-240zM418 1032l151 447h185l-97 -447h-239z" />
<glyph unicode="&#x201d;" horiz-adv-x="808" d="M90 1030l96 449h242l-154 -449h-184zM426 1030l96 449h240l-152 -449h-184z" />
<glyph unicode="&#x201e;" horiz-adv-x="837" d="M66 -182l96 446h233l-153 -446h-176zM393 -182l96 446h232l-152 -446h-176z" />
<glyph unicode="&#x2022;" horiz-adv-x="851" d="M84 596q0 141 100.5 241.5t241.5 100.5q143 0 242.5 -100.5t99.5 -241.5t-99.5 -241.5t-242.5 -100.5q-141 0 -241.5 100.5t-100.5 241.5z" />
<glyph unicode="&#x2026;" horiz-adv-x="1683" d="M133 0v260h250v-260h-250zM715 0v260h252v-260h-252zM1298 0v260h252v-260h-252z" />
<glyph unicode="&#x2039;" horiz-adv-x="737" d="M72 578l336 421h247l-336 -421l336 -420h-247z" />
<glyph unicode="&#x203a;" horiz-adv-x="737" d="M82 158l336 420l-336 421h248l336 -421l-336 -420h-248z" />
<glyph unicode="&#x20ac;" horiz-adv-x="1206" d="M63 668h115q-6 28 -6 64q0 29 4 63h-113v157h142q68 233 259 380t441 147q51 0 106.5 -6.5t84.5 -14.5l28 -6l-63 -240q-78 20 -162 21q-145 0 -253.5 -75t-158.5 -206h523l-31 -157h-528q-4 -25 -4 -53q0 -35 6 -74h499l-30 -156h-424q49 -131 159.5 -209t251.5 -78 q45 0 92.5 7.5t71.5 13.5l25 8l49 -242q-104 -37 -242 -37q-260 0 -448.5 147.5t-251.5 389.5h-142v156z" />
<glyph unicode="&#x2122;" horiz-adv-x="1937" d="M37 1282v172h801v-172h-301v-735h-197v735h-303zM893 547l72 907h182l186 -428l29 -86h4q12 51 27 86l188 428h180l70 -907h-195l-34 467l2 63h-5l-159 -364h-154l-160 364h-4l2 -63l-37 -467h-194z" />
<glyph unicode="&#xe000;" horiz-adv-x="1045" d="M0 1045h1045v-1045h-1045v1045z" />
<glyph unicode="&#xfb01;" horiz-adv-x="1257" d="M68 838v206h129v31q0 98 30.5 171t75.5 113t107.5 64.5t111.5 31.5t101 7l88 -6v-221q-23 4 -54 4q-201 0 -200 -170v-25h657v-1044h-260v838h-397v-838h-260v838h-129zM854 1223v231h258v-231h-258z" />
<glyph unicode="&#xfb02;" horiz-adv-x="1292" d="M68 821v207h129v47q0 98 30.5 171t75.5 113t107.5 64.5t111.5 31.5t101 7l88 -6v-221q-23 4 -54 4q-201 0 -200 -170v-41h223v-207h-223v-821h-260v821h-129zM840 326v1128h258v-1089q0 -82 25.5 -113t80.5 -31l39 2v-227q-39 -6 -82 -6q-63 0 -112.5 11t-100.5 43 t-79.5 104t-28.5 178z" />
<glyph unicode="&#xfb03;" horiz-adv-x="1968" d="M68 838v206h129v31q0 98 30.5 171t75.5 113t107.5 64.5t111.5 31.5t101 7l88 -6v-221q-23 4 -54 4q-201 0 -200 -170v-25h450v31q0 98 31 171t76 113t107.5 64.5t111.5 31.5t100 7l88 -6v-221q-23 4 -53 4q-201 0 -201 -170v-25h658v-1044h-260v838h-398v-838h-260v838 h-450v-838h-260v838h-129zM1565 1223v231h258v-231h-258z" />
<glyph unicode="&#xfb04;" horiz-adv-x="2002" d="M68 838v206h129v31q0 98 30.5 171t75.5 113t107.5 64.5t111.5 31.5t101 7l88 -6v-221q-23 4 -54 4q-201 0 -200 -170v-25h450v31q0 98 31 171t76 113t107.5 64.5t111.5 31.5t100 7l88 -6v-221q-23 4 -53 4q-201 0 -201 -170v-25h224v-206h-224v-838h-260v838h-450v-838 h-260v838h-129zM1550 326v1128h258v-1089q0 -82 26 -113t81 -31l39 2v-227q-39 -6 -82 -6q-63 0 -112.5 11t-100.5 43t-80 104t-29 178z" />
</font>
</defs>
</svg>
