<?xml version="1.0" standalone="no"?>
<!DOCTYPE svg PUBLIC "-//W3C//DTD SVG 1.1//EN" "http://www.w3.org/Graphics/SVG/1.1/DTD/svg11.dtd" >
<svg xmlns="http://www.w3.org/2000/svg">
<metadata>
This is a custom SVG webfont generated by Font Squirrel.
Copyright   : Copyright c 2008 by Jos Buivenga All rights reserved
Designer    : Jos Buivenga
Foundry     : Jos Buivenga
Foundry URL : httpwwwjosbuivengademonnl
</metadata>
<defs>
<font id="MuseoSans500Italic" horiz-adv-x="1073" >
<font-face units-per-em="2048" ascent="1536" descent="-512" />
<missing-glyph horiz-adv-x="526" />
<glyph unicode=" "  horiz-adv-x="526" />
<glyph unicode="&#x09;" horiz-adv-x="526" />
<glyph unicode="&#xa0;" horiz-adv-x="526" />
<glyph unicode="!" horiz-adv-x="643" d="M100 0l41 201h205l-39 -201h-207zM190 397l191 1049h207l-219 -1049h-179z" />
<glyph unicode="&#x22;" horiz-adv-x="694" d="M217 1085l74 385h155l-73 -385h-156zM504 1085l76 385h155l-76 -385h-155z" />
<glyph unicode="#" horiz-adv-x="1462" d="M43 391l53 152h264l129 344h-262l56 149h260l151 410h170l-151 -410h319l152 410h170l-152 -410h262l-55 -149h-262l-129 -344h262l-55 -152h-262l-144 -391h-170l144 391h-318l-143 -391h-170l143 391h-262zM530 543h318l129 344h-318z" />
<glyph unicode="$" horiz-adv-x="1159" d="M27 166l129 143q14 -16 40.5 -40.5t118 -64.5t191.5 -40q115 0 206 68.5t91 181.5q0 70 -60.5 124t-145.5 96t-171 90t-146.5 128t-60.5 186q0 168 135 291t330 139l37 189h143l-37 -193q201 -25 316 -135l6 -6l-115 -149q-12 12 -36.5 30.5t-103.5 48t-163 29.5 q-125 0 -216 -73.5t-91 -170.5q0 -63 60.5 -114.5t146.5 -93.5t171 -90t145.5 -132t60.5 -194q0 -172 -134.5 -299t-334.5 -138l-37 -186h-144l35 193q-221 31 -354 168z" />
<glyph unicode="%" horiz-adv-x="1570" d="M25 0l1366 1446h202l-1366 -1446h-202zM199 1133q0 129 109.5 233t246.5 104q123 0 199.5 -75.5t76.5 -194.5q0 -131 -109.5 -233.5t-246.5 -102.5q-125 0 -200.5 74t-75.5 195zM360 1137q0 -53 35 -87t94 -34q72 0 126.5 53t54.5 127q0 55 -36 90t-93 35 q-70 0 -125.5 -55t-55.5 -129zM784 244q0 129 108.5 233.5t246.5 104.5q123 0 199.5 -76t76.5 -195q0 -131 -109.5 -233.5t-244.5 -102.5q-125 0 -201 74t-76 195zM944 248q0 -53 36 -87t95 -34q70 0 125 54.5t55 125.5q0 55 -35.5 90t-93.5 35q-70 0 -126 -56t-56 -128z " />
<glyph unicode="&#x26;" horiz-adv-x="1394" d="M63 356q0 139 96.5 260t243.5 162v4q-6 2 -15 7.5t-33.5 25t-43 44t-34 70.5t-15.5 101q0 201 147.5 320.5t356.5 119.5q43 0 91 -7t73 -13l26 -8l-79 -156q-57 12 -107 12q-123 0 -214 -74.5t-91 -197.5q0 -176 227 -176h269l38 197h199l-37 -197h191l-35 -176h-191 l-39 -193q-100 -506 -565 -506q-215 0 -337 105.5t-122 275.5zM276 369q0 -92 67 -149.5t183 -57.5q299 0 365 327l37 185h-277q-154 0 -264.5 -79t-110.5 -226z" />
<glyph unicode="'" horiz-adv-x="409" d="M217 1085l74 385h160l-76 -385h-158z" />
<glyph unicode="(" horiz-adv-x="612" d="M131 354q0 655 424 1151h180q-426 -532 -426 -1155q0 -287 94 -545h-165q-107 268 -107 549z" />
<glyph unicode=")" horiz-adv-x="614" d="M-109 -195q426 537 426 1156q0 287 -94 544h166q106 -264 107 -549q0 -651 -424 -1151h-181z" />
<glyph unicode="*" horiz-adv-x="948" d="M160 1090l88 167l252 -102l41 291h186l-74 -291l295 102l25 -174l-301 -79l-2 -5l135 -221l-156 -106l-117 243h-4l-204 -241l-134 108l228 230v4z" />
<glyph unicode="+" horiz-adv-x="1376" d="M127 504l31 160h456l101 503h168l-101 -503h457l-29 -160h-456l-99 -504h-168l99 504h-459z" />
<glyph unicode="," horiz-adv-x="528" d="M-100 -207l209 422h210l-258 -422h-161z" />
<glyph unicode="-" horiz-adv-x="956" d="M156 496l32 176h598l-32 -176h-598z" />
<glyph unicode="." horiz-adv-x="512" d="M35 0l41 215h213l-41 -215h-213z" />
<glyph unicode="/" horiz-adv-x="825" d="M-68 -86l832 1610h188l-833 -1610h-187z" />
<glyph unicode="0" horiz-adv-x="1288" d="M123 453q0 119 20.5 248.5t69.5 269t122 249t188.5 180t256.5 70.5q428 0 428 -477q0 -119 -20.5 -249t-69.5 -269t-121.5 -248.5t-188.5 -180.5t-259 -71q-426 1 -426 478zM332 457q0 -295 225 -295q92 0 169 58.5t126 148.5t83 202.5t48 217t14 196.5q0 299 -223 299 q-111 0 -200 -83t-139 -213t-76.5 -267t-26.5 -264z" />
<glyph unicode="1" horiz-adv-x="995" d="M2 0l31 176h319l180 918l19 88h-4q-23 -33 -84 -84l-158 -129l-106 139l417 338h183l-248 -1270h313l-33 -176h-829z" />
<glyph unicode="2" horiz-adv-x="1171" d="M10 0q2 129 52.5 237.5t130 185.5t176 143.5t192.5 125t175 115.5t128 129t49 151q0 88 -59 140.5t-158 52.5q-55 0 -109.5 -19.5t-92 -46t-68.5 -53t-45 -47.5l-16 -18l-144 112l23 28q14 17 64 63.5t104.5 80t137.5 62t169 28.5q184 0 297.5 -99t113.5 -263 q0 -139 -81.5 -255t-201.5 -197t-243 -151.5t-220 -154.5t-118 -174h707l-33 -176h-930z" />
<glyph unicode="3" horiz-adv-x="1159" d="M-8 172l127 141q4 -6 12 -15t40 -34.5t66.5 -45t94 -35t123.5 -15.5q137 0 243.5 92t106.5 223q0 106 -82 160.5t-211 54.5h-104l-25 109l379 371l108 94v4q-43 -6 -122 -6h-478l35 176h864l-26 -129l-477 -459q57 -6 113.5 -27.5t110.5 -62.5t88 -112.5t34 -163.5 q0 -207 -160 -362t-393 -155q-92 0 -173 20.5t-132.5 49.5t-90 57.5t-55.5 49.5z" />
<glyph unicode="4" horiz-adv-x="1243" d="M20 387l25 127l832 932h249l-174 -887h197l-33 -172h-196l-76 -387h-199l74 387h-699zM295 559h459l102 526l35 144h-4q-47 -66 -94 -119l-498 -549v-2z" />
<glyph unicode="5" horiz-adv-x="1159" d="M16 176l131 137q4 -6 11.5 -15t35 -34.5t59.5 -45t85 -35t113 -15.5q143 0 258.5 101.5t115.5 248.5q0 106 -76.5 173t-201.5 67q-66 0 -130.5 -18.5t-97.5 -34.5l-30 -19l-115 45l213 715h735l-35 -176h-555l-92 -301l-24 -76h4q82 41 186 41q188 0 309 -114.5 t121 -291.5q0 -229 -175 -391t-408 -162q-264 0 -408 164z" />
<glyph unicode="6" horiz-adv-x="1228" d="M113 504q0 143 54 307t150.5 313.5t253 247.5t340.5 98q84 0 158 -15t107 -30l30 -16l-92 -166q-86 41 -201 41q-186 0 -325 -142.5t-205 -342.5h4q55 61 145.5 99t178.5 38q184 0 289.5 -109.5t105.5 -287.5q0 -215 -149.5 -389.5t-381.5 -174.5q-211 0 -336.5 142.5 t-125.5 386.5zM317 485q0 -131 71 -227t185 -96q139 0 234.5 108.5t95.5 261.5q0 106 -64.5 169t-183.5 63q-121 0 -229.5 -81t-108.5 -198z" />
<glyph unicode="7" horiz-adv-x="1085" d="M39 0l784 1139q59 84 111 133v4q-33 -6 -105 -6h-632l34 176h967l-27 -139l-907 -1307h-225z" />
<glyph unicode="8" horiz-adv-x="1249" d="M76 369q0 86 40 166.5t102.5 139t100 88.5t70.5 48q-123 102 -123 240q0 166 138.5 292.5t363.5 126.5q195 0 306.5 -90t111.5 -250q0 -72 -32 -147.5t-81 -136t-80.5 -93t-58.5 -55.5q154 -106 153 -260q0 -188 -160.5 -325.5t-391.5 -137.5q-209 0 -334 107t-125 287z M289 379q0 -100 71.5 -160.5t178.5 -60.5q133 0 236.5 77.5t103.5 200.5q0 39 -17.5 71t-60.5 63.5t-72 48t-100 52.5l-97 48q-33 -18 -67.5 -45t-77.5 -71t-70.5 -102.5t-27.5 -121.5zM471 1053q0 -29 9 -54.5t30.5 -49t39 -40t54.5 -37.5l56 -30q19 -10 65 -32l61 -30 q193 166 193 336q0 80 -58.5 126t-160.5 46q-127 0 -208 -68.5t-81 -166.5z" />
<glyph unicode="9" horiz-adv-x="1230" d="M66 37l92 166q88 -41 202 -41q186 0 324.5 142t204.5 343h-4q-45 -55 -135.5 -95t-186.5 -40q-186 0 -290.5 108.5t-104.5 286.5q0 215 150.5 389t381.5 174q211 0 336 -142t125 -386q0 -113 -32.5 -242t-101.5 -257t-161 -232.5t-224 -170t-280 -65.5q-185 1 -296 62z M369 913q0 -104 64.5 -167.5t180.5 -63.5q121 0 230.5 82t109.5 199q0 131 -69.5 226t-186.5 95q-139 0 -234 -108.5t-95 -262.5z" />
<glyph unicode=":" horiz-adv-x="595" d="M72 0l41 215h215l-43 -215h-213zM231 821l43 215h213l-41 -215h-215z" />
<glyph unicode=";" horiz-adv-x="606" d="M-74 -207l209 422h211l-256 -422h-164zM252 821l41 215h209l-41 -215h-209z" />
<glyph unicode="&#x3c;" horiz-adv-x="1171" d="M59 516v135l955 426v-182l-733 -309v-4l733 -310v-182z" />
<glyph unicode="=" horiz-adv-x="1376" d="M190 309v160h977v-160h-977zM190 696v160h977v-160h-977z" />
<glyph unicode="&#x3e;" horiz-adv-x="1165" d="M141 90v182l731 310v4l-731 309v182l955 -426v-135z" />
<glyph unicode="?" horiz-adv-x="989" d="M168 0l41 201h205l-39 -201h-207zM199 1356l51 33q33 20 128 53t185 33q166 0 273.5 -89.5t107.5 -238.5q0 -100 -45 -184t-111.5 -140.5t-135 -105.5t-124 -109.5t-67.5 -126.5l-19 -84h-192l18 97q18 90 72.5 165.5t119.5 125.5l127 100q62 49 104 108.5t42 128.5 q0 74 -53 120t-143 46q-131 -2 -250 -86z" />
<glyph unicode="@" horiz-adv-x="1658" d="M84 358q0 176 73.5 341t195.5 286t285 193.5t333 72.5q252 0 364.5 -95t112.5 -255q0 -49 -12 -110l-103 -535h146l-29 -150h-537q-174 0 -275 95.5t-101 240.5q0 170 140 302.5t343 132.5h242q4 20 4 32q0 80 -77 129t-216 49q-274 0 -482 -220t-208 -498 q0 -205 129 -336t352 -131l-31 -158q-283 0 -466 174t-183 440zM737 446q0 -84 54.5 -137t144.5 -53h205l94 483h-201q-121 0 -209 -88t-88 -205z" />
<glyph unicode="A" horiz-adv-x="1282" d="M-98 0l792 1446h226l235 -1446h-203l-63 416h-545l-225 -416h-217zM428 584h440l-71 458l-21 205h-4q-55 -131 -94 -205z" />
<glyph unicode="B" horiz-adv-x="1302" d="M78 0l282 1446h465q125 0 197 -27q92 -35 143.5 -109.5t51.5 -179.5q0 -123 -67 -221t-177 -145v-4q84 -31 131 -106.5t47 -178.5q0 -156 -84 -270.5t-221 -167.5q-94 -37 -213 -37h-555zM315 176h326q78 0 135 29q76 37 121 109.5t45 164.5q0 88 -54 139.5t-153 51.5 h-323zM442 838h306q111 0 186.5 77.5t75.5 192.5q0 76 -46 119t-135 43h-301z" />
<glyph unicode="C" horiz-adv-x="1480" d="M111 602q0 231 118.5 433t316 318.5t421.5 116.5q102 0 193 -19t148.5 -48t100.5 -57.5t61 -47.5l19 -20l-121 -139q-16 16 -47 40.5t-133.5 64.5t-214.5 40q-270 0 -462 -201.5t-192 -470.5q0 -197 118 -323.5t323 -126.5q236 0 452 164l29 22l88 -160l-29 -22 q-18 -14 -77.5 -51t-123 -66t-159.5 -51.5t-190 -22.5q-293 0 -466 174t-173 453z" />
<glyph unicode="D" horiz-adv-x="1513" d="M80 0l280 1446h447q299 0 469 -147.5t170 -415.5q0 -242 -107.5 -442.5t-304 -320.5t-442.5 -120h-512zM315 176h263q289 0 475 197.5t186 492.5q0 195 -119 299.5t-327 104.5h-265z" />
<glyph unicode="E" horiz-adv-x="1171" d="M78 0l284 1446h838l-35 -176h-637l-88 -453h518l-34 -176h-518l-91 -465h672l-33 -176h-876z" />
<glyph unicode="F" horiz-adv-x="1069" d="M78 0l282 1446h795l-35 -176h-594l-92 -475h504l-33 -177h-506l-120 -618h-201z" />
<glyph unicode="G" horiz-adv-x="1556" d="M111 590q0 358 258 619t610 261q299 0 489 -147l29 -25l-123 -141q-6 6 -17 14.5t-49 30t-80 38.5t-108.5 30.5t-136.5 13.5q-281 0 -471 -205t-190 -479q0 -201 119.5 -319.5t312.5 -118.5q219 0 422 168l26 22l39 199h-233l32 176h420l-141 -727h-176l16 90l15 62h-5 l-19 -18.5t-58 -43.5t-94.5 -53.5t-125 -42t-153.5 -19.5q-260 0 -434 170.5t-174 444.5z" />
<glyph unicode="H" horiz-adv-x="1546" d="M78 0l282 1446h201l-125 -637h752l125 637h200l-282 -1446h-201l123 635h-752l-122 -635h-201z" />
<glyph unicode="I" horiz-adv-x="595" d="M78 0l282 1446h201l-280 -1446h-203z" />
<glyph unicode="J" horiz-adv-x="1089" d="M10 317q0 55 10 107l13 63h200l-10 -59q-8 -53 -8 -82q0 -184 182 -184q94 0 171 62.5t104 193.5l166 852h-363l35 176h563l-203 -1047q-29 -145 -105.5 -243.5t-169.5 -139.5t-202 -41q-164 0 -273.5 87t-109.5 255z" />
<glyph unicode="K" horiz-adv-x="1275" d="M78 0l282 1446h201l-119 -608h207l492 608h235l-565 -694v-4l299 -748h-215l-258 664h-229l-129 -664h-201z" />
<glyph unicode="L" horiz-adv-x="1071" d="M78 0l282 1446h203l-248 -1270h648l-37 -176h-848z" />
<glyph unicode="M" horiz-adv-x="1771" d="M31 0l395 1446h211l180 -782l33 -195h4q61 113 111 195l485 782h217l-166 -1446h-198l108 911q10 88 37 213h-4q-70 -135 -119 -213l-414 -651h-182l-162 651l-37 217h-4q-18 -129 -43 -217l-250 -911h-202z" />
<glyph unicode="N" horiz-adv-x="1536" d="M78 0l282 1446h187l463 -940q37 -76 77 -209h5q10 129 26 209l182 940h203l-282 -1446h-187l-463 938q-39 80 -79 211h-5q-10 -129 -26 -211l-182 -938h-201z" />
<glyph unicode="O" horiz-adv-x="1677" d="M109 606q0 227 122.5 429t322.5 318.5t417 116.5q289 0 467 -172t178 -442q0 -231 -125 -437t-324.5 -325t-414.5 -119q-289 0 -466 177.5t-177 453.5zM315 614q0 -201 123 -326.5t316 -125.5q250 0 451.5 203.5t201.5 480.5q0 195 -122 316.5t-316 121.5 q-252 0 -453 -199t-201 -471z" />
<glyph unicode="P" horiz-adv-x="1245" d="M78 0l282 1446h496q137 0 225 -47q86 -45 134.5 -129t48.5 -193q0 -170 -87 -304t-229 -195q-100 -43 -215 -43h-348l-104 -535h-203zM418 711h295q88 0 153 32q86 41 137.5 125t51.5 195q0 98 -60.5 152.5t-173.5 54.5h-293z" />
<glyph unicode="Q" horiz-adv-x="1699" d="M109 606q0 227 122.5 429t322.5 318.5t417 116.5q287 0 465 -172t178 -442q0 -350 -268 -614l133 -160l-129 -119l-136 170q-209 -158 -462 -158q-289 0 -466 177.5t-177 453.5zM315 614q0 -201 122 -326.5t317 -125.5q178 0 342 114l-140 170l129 119l138 -174 q182 199 182 455q0 195 -122 316.5t-314 121.5q-252 0 -453 -199t-201 -471z" />
<glyph unicode="R" horiz-adv-x="1306" d="M78 0l282 1446h492q125 0 205 -37q184 -86 184 -303q0 -164 -94 -298t-254 -179v-4q10 -20 27 -66l200 -559h-215l-198 575h-316l-110 -575h-203zM426 752h285q135 0 228 90t93 235q0 90 -57 141.5t-158 51.5h-291z" />
<glyph unicode="S" horiz-adv-x="1120" d="M6 166l127 143q4 -6 14.5 -15t44 -35t71.5 -45t98.5 -34.5t123.5 -15.5q115 0 205 68.5t90 181.5q0 70 -60.5 124t-145.5 96t-170 90t-145 128t-60 186q0 180 151.5 306t362.5 126q127 0 230.5 -36.5t143.5 -73.5l41 -37l-114 -149q-12 12 -37 30.5t-103.5 48 t-162.5 29.5q-125 0 -217.5 -73.5t-92.5 -170.5q0 -63 60.5 -114.5t146.5 -93.5t172 -90t146.5 -132t60.5 -194q0 -178 -145.5 -308.5t-360.5 -130.5q-272 0 -444 160z" />
<glyph unicode="T" horiz-adv-x="1206" d="M131 1270l33 176h1194l-33 -176h-498l-245 -1270h-203l248 1270h-496z" />
<glyph unicode="U" horiz-adv-x="1488" d="M147 403q0 55 13 117l180 926h201l-181 -932q-8 -39 -8 -86q0 -127 80 -196.5t225 -69.5q168 0 285 94t150 262l182 928h201l-185 -944q-47 -242 -219 -384.5t-418 -142.5q-225 0 -365.5 113.5t-140.5 314.5z" />
<glyph unicode="V" horiz-adv-x="1290" d="M166 1446h211l160 -1022q12 -78 16 -199h4q53 121 94 199l559 1022h228l-809 -1446h-217z" />
<glyph unicode="W" horiz-adv-x="1951" d="M225 1446h207l53 -1061v-154h4q27 74 64 154l500 1061h184l63 -1061v-154h5q27 78 59 154l461 1061h221l-651 -1446h-238l-63 938v205h-4q-43 -111 -86 -203l-449 -940h-233z" />
<glyph unicode="X" horiz-adv-x="1239" d="M-74 0l598 754l-291 692h220l153 -385l62 -172h4q55 88 119 168l303 389h239l-571 -709l317 -737h-215l-182 438l-59 166h-5q-55 -82 -116 -162l-346 -442h-230z" />
<glyph unicode="Y" horiz-adv-x="1185" d="M164 1446h217l174 -475q29 -80 53 -183h4q61 98 123 181l355 477h243l-651 -840l-119 -606h-201l121 612z" />
<glyph unicode="Z" horiz-adv-x="1232" d="M-37 0l27 135l874 1004q33 37 66 69l49 49l16 15v4q-37 -6 -106 -6h-643l35 176h1013l-26 -133l-877 -1006q-33 -37 -65.5 -69.5t-49.5 -47.5l-16 -14v-4q37 4 107 4h686l-33 -176h-1057z" />
<glyph unicode="[" horiz-adv-x="612" d="M43 -195l332 1700h340l-31 -149h-166l-270 -1399h166l-31 -152h-340z" />
<glyph unicode="\" horiz-adv-x="806" d="M229 1524h168l207 -1610h-168z" />
<glyph unicode="]" horiz-adv-x="602" d="M-94 -195l31 152h163l271 1399h-164l29 149h339l-329 -1700h-340z" />
<glyph unicode="^" horiz-adv-x="1255" d="M23 506l409 940h129l408 -940h-178l-295 721l-293 -721h-180z" />
<glyph unicode="_" horiz-adv-x="1204" d="M-96 -160l28 160h1102l-30 -160h-1100z" />
<glyph unicode="`" horiz-adv-x="1021" d="M248 1806h205l96 -260h-158z" />
<glyph unicode="a" d="M0 238q0 119 66.5 204.5t176 127.5t219 59.5t228.5 17.5h51q8 41 9 84q0 162 -187 162q-72 0 -148.5 -24.5t-119.5 -49.5l-41 -24l-53 157q18 12 53 30.5t137.5 48.5t200.5 30q162 0 261 -75t99 -232q0 -57 -12 -115l-125 -639h-184l20 104q14 82 23 82h-4 q2 0 -13.5 -21.5t-46 -52t-71.5 -62.5t-102.5 -53.5t-127.5 -21.5q-129 0 -219 71t-90 192zM203 270q0 -57 42 -96t124 -39q117 0 213 101.5t127 226.5l8 35h-51q-463 -1 -463 -228z" />
<glyph unicode="b" horiz-adv-x="1226" d="M35 0l280 1446h199l-90 -469l-27 -94h4q55 80 149.5 129t194.5 49q184 0 287 -115t103 -311q0 -285 -171 -472.5t-397 -187.5q-109 0 -193.5 49.5t-121.5 139.5h-4q0 -39 -8 -84l-17 -80h-188zM317 410q0 -115 58.5 -189t173.5 -74q145 0 264 131.5t119 342.5 q0 125 -62.5 195.5t-171.5 70.5q-158 0 -269.5 -143.5t-111.5 -333.5z" />
<glyph unicode="c" horiz-adv-x="1118" d="M53 426q0 262 190.5 448.5t448.5 186.5q236 0 373 -131l18 -19l-110 -129q-10 12 -31.5 29.5t-92.5 47.5t-147 30q-178 0 -312 -132t-134 -317q0 -131 83 -212t220 -81q86 0 173 35t132 70l43 35l56 -158q-18 -16 -53.5 -42t-146 -69t-222.5 -43q-223 0 -355.5 125 t-132.5 326z" />
<glyph unicode="d" horiz-adv-x="1228" d="M55 399q0 287 171 474.5t403 187.5q100 0 184 -44t119 -130h4q0 39 8 76l94 483h199l-281 -1446h-190l20 98l19 76h-4q-57 -86 -149.5 -142.5t-205.5 -56.5q-184 0 -287.5 113.5t-103.5 310.5zM258 414q0 -125 63.5 -196t172.5 -71q158 0 268 146.5t110 331.5 q0 115 -58 188.5t-173 73.5q-145 0 -264 -131t-119 -342z" />
<glyph unicode="e" horiz-adv-x="1128" d="M55 418q0 262 173 452.5t429 190.5q195 0 295.5 -104.5t100.5 -278.5q0 -37 -8.5 -84t-16.5 -76l-8 -29h-756q-6 -31 -6 -61q0 -121 78 -201t217 -80q80 0 162 31t125 60l43 30l57 -157q-18 -14 -53 -37t-139.5 -61t-202.5 -38q-223 0 -356.5 123t-133.5 320zM297 639 h553q4 23 4 55q0 100 -55.5 154.5t-145.5 54.5q-115 0 -212 -71.5t-144 -192.5z" />
<glyph unicode="f" horiz-adv-x="686" d="M92 0l168 864h-129l31 162h129l10 49q18 96 60 169t89.5 112t107.5 63.5t104.5 30.5t87.5 6l90 -6l-37 -170q-16 4 -47 4q-217 0 -258 -217l-9 -41h244l-31 -162h-243l-168 -864h-199z" />
<glyph unicode="g" horiz-adv-x="1210" d="M-2 -338l86 148q113 -68 276 -68q145 0 250 71.5t133 219.5l17 76l18 71h-2q-123 -168 -319 -168q-186 0 -291 116t-105 304q0 150 61.5 291t189.5 239.5t296 98.5q248 0 316 -164h4q0 23 4 43l18 96h189l-195 -1007q-47 -238 -206.5 -348.5t-366.5 -110.5t-373 92z M264 446q0 -123 62.5 -192.5t179.5 -69.5q166 0 261 151.5t95 330.5q0 223 -237 223q-164 0 -262.5 -133.5t-98.5 -309.5z" />
<glyph unicode="h" horiz-adv-x="1230" d="M35 0l280 1446h199l-102 -531l-23 -92h4q49 88 164 163t254 75q143 0 224 -68.5t81 -206.5q0 -55 -16 -131l-127 -655h-199l119 612q14 76 14 117q0 150 -153 150q-152 0 -275 -120t-153 -286l-93 -473h-198z" />
<glyph unicode="i" horiz-adv-x="507" d="M35 0l203 1036h198l-203 -1036h-198zM274 1243l39 203h205l-41 -203h-203z" />
<glyph unicode="j" horiz-adv-x="507" d="M-311 -418l32 170q18 -2 46 -2q35 0 68.5 8.5t76.5 28.5t74.5 69.5t46.5 120.5l205 1059h198l-209 -1069q-18 -98 -60 -173t-88 -114.5t-105.5 -64.5t-102.5 -31t-88 -6zM274 1243l39 203h205l-39 -203h-205z" />
<glyph unicode="k" d="M35 0l282 1446h199l-156 -789h142l358 379h240l-443 -465v-4l269 -567h-215l-219 485h-164l-95 -485h-198z" />
<glyph unicode="l" horiz-adv-x="540" d="M72 209q0 33 10 88l223 1149h199l-215 -1114q-10 -47 -10 -78q0 -84 92 -84l32 2l-36 -176q-29 -4 -60 -4q-98 0 -166.5 49t-68.5 168z" />
<glyph unicode="m" horiz-adv-x="1867" d="M37 0l201 1036h194l-26 -133l-25 -86h4q57 100 167 172t230 72q250 0 273 -236h4q61 100 171.5 168t231.5 68q141 0 216 -68.5t75 -206.5q0 -57 -16 -139l-125 -647h-199l121 616q12 68 12 113q0 152 -147 152q-137 0 -244.5 -124t-138.5 -284l-92 -473h-197l119 616 q12 68 12 117q0 147 -143 148q-135 0 -246 -124t-141 -286l-92 -471h-199z" />
<glyph unicode="n" horiz-adv-x="1232" d="M37 0l201 1036h194l-22 -121l-29 -98h4q49 90 168 167t260 77q143 0 223 -68.5t80 -206.5q0 -49 -14 -131l-127 -655h-199l119 612q14 76 14 117q0 150 -153.5 150t-275.5 -119t-154 -287l-90 -473h-199z" />
<glyph unicode="o" horiz-adv-x="1273" d="M53 432q0 260 195.5 444.5t445.5 184.5q217 0 354.5 -126t137.5 -327q0 -262 -195.5 -447.5t-443.5 -185.5q-219 0 -356.5 127t-137.5 330zM256 440q0 -131 82 -212t211 -81q166 0 300 132.5t134 318.5q0 129 -82 210t-209 81q-170 0 -303 -131.5t-133 -317.5z" />
<glyph unicode="p" horiz-adv-x="1226" d="M-43 -410l281 1446h184l-16 -88l-23 -82h4q57 86 150.5 140.5t210.5 54.5q184 0 286.5 -115t102.5 -311q0 -285 -170 -472.5t-394 -187.5q-106 0 -189 46.5t-120 134.5h-4q-4 -43 -14 -97l-90 -469h-199zM319 414q0 -117 59.5 -192t172.5 -75q145 0 264 131.5t119 342.5 q0 125 -62.5 195.5t-171.5 70.5q-156 0 -268.5 -144.5t-112.5 -328.5z" />
<glyph unicode="q" horiz-adv-x="1228" d="M55 397q0 287 171 475.5t403 188.5q233 0 309 -180h4q2 31 10 71l15 84h190l-280 -1446h-199l90 473l27 97h-4q-49 -76 -139.5 -130.5t-207.5 -54.5q-184 0 -286.5 113.5t-102.5 308.5zM258 414q0 -125 63.5 -196t172.5 -71q158 0 268 146.5t110 331.5q0 115 -58 188.5 t-173 73.5q-145 0 -264 -131t-119 -342z" />
<glyph unicode="r" horiz-adv-x="765" d="M37 0l201 1036h192l-37 -180l-20 -84h2q55 117 156.5 197t218.5 80q37 0 61 -5l-39 -196q-23 6 -55 6q-137 0 -255 -144.5t-155 -332.5l-71 -377h-199z" />
<glyph unicode="s" horiz-adv-x="909" d="M-23 125l109 131q12 -12 33.5 -30.5t96.5 -50.5t157 -32q80 0 144.5 41t64.5 113q0 43 -47.5 77t-114 62.5t-133 63.5t-113.5 96t-47 145q0 145 120 232.5t277 87.5q205 0 330 -107l8 -8l-98 -137q-8 10 -25.5 23.5t-80 37t-136.5 23.5q-78 0 -142.5 -38t-64.5 -112 q0 -43 47.5 -76.5t115 -62.5t134 -63.5t113.5 -97t47 -146.5q0 -141 -115.5 -231.5t-283.5 -90.5q-72 0 -139.5 15.5t-111.5 37t-78 44t-50 39.5z" />
<glyph unicode="t" horiz-adv-x="722" d="M111 864l30 162h140l59 295h192l-59 -295h250l-31 -162h-250l-86 -452q-8 -41 -8 -82q0 -162 170 -162l60 4l-35 -176q-33 -4 -66 -4q-334 0 -334 303q0 45 13 104l90 465h-135z" />
<glyph unicode="u" horiz-adv-x="1220" d="M80 250q0 49 14 131l127 655h199l-119 -610q-12 -68 -12 -119q0 -72 35.5 -109.5t119.5 -37.5q150 0 266.5 123t147.5 282l92 471h199l-201 -1036h-194l24 121l27 98h-4q-53 -92 -166 -168t-254 -76q-133 0 -217 67t-84 208z" />
<glyph unicode="v" horiz-adv-x="1009" d="M86 1036h197l112 -704l11 -142h4q35 84 65 142l387 704h213l-586 -1036h-219z" />
<glyph unicode="w" horiz-adv-x="1658" d="M115 1036h198l74 -731l4 -110h4q25 59 49 110l365 729h184l80 -729l6 -110h4q20 57 47 110l361 731h213l-535 -1036h-219l-86 670l-6 110h-4q-25 -57 -51 -110l-342 -670h-215z" />
<glyph unicode="x" horiz-adv-x="1032" d="M-76 0l465 539l-250 497h213l144 -309l22 -65h4q23 35 43 61l254 313h236l-439 -512l261 -524h-209l-160 340l-25 61h-4q-18 -33 -39 -57l-282 -344h-234z" />
<glyph unicode="y" horiz-adv-x="1042" d="M-188 -362l92 141q43 -37 112 -37q129 0 220 149l75 123l-237 1022h207l139 -700l16 -123h2q31 68 60 119l389 704h223l-727 -1226q-143 -240 -358 -240q-125 0 -213 68z" />
<glyph unicode="z" horiz-adv-x="1046" d="M-41 0l21 115l641 655l102 96v4q-31 -4 -98 -4h-478l33 170h852l-20 -114l-643 -658l-105 -94v-4q33 4 101 4h516l-33 -170h-889z" />
<glyph unicode="{" horiz-adv-x="714" d="M90 578l35 176q6 0 18.5 2t45 16t60 36.5t54.5 68t39 104.5l37 184q68 344 399 344q10 0 21.5 -1t17.5 -1h8l-30 -151h-27q-176 0 -219 -215l-45 -226q-33 -170 -185 -235l-32 -12v-4l13 -6.5t29.5 -22t37 -40t30 -60t13.5 -82.5q0 -27 -7 -60l-45 -223q-8 -41 -8 -72 q0 -143 146 -143h28l-30 -152q-20 -4 -50 -4q-27 0 -55.5 5.5t-69 21.5t-71.5 44t-52.5 78t-21.5 118q0 49 12 104l35 184q6 35 6 60q0 127 -114 159z" />
<glyph unicode="|" horiz-adv-x="651" d="M244 -326v1948h174v-1948h-174z" />
<glyph unicode="}" horiz-adv-x="706" d="M-100 -197l28 152h27q180 0 221 215l47 244q12 59 39 107t56.5 74t57 43t46.5 24l18 6v4q-14 6 -33.5 18t-53.5 64.5t-34 122.5q0 29 7 61l39 203q8 35 8 71q0 143 -146 144h-26l28 151q23 4 49.5 4t55 -5t69.5 -21.5t72 -44t53.5 -77.5t22.5 -118q0 -31 -12 -104 l-31 -164q-6 -35 -6 -59q0 -68 33.5 -109t66.5 -47l35 -8l-33 -176q-8 0 -20.5 -2.5t-45 -16.5t-59 -36.5t-54.5 -67.5t-40 -105l-39 -205q-66 -346 -401 -346z" />
<glyph unicode="~" horiz-adv-x="1210" d="M113 418q0 174 74.5 260t211.5 86q72 0 130.5 -32t89 -68.5t75.5 -68.5t97 -32q74 0 105.5 57.5t31.5 135.5h162q0 -346 -285 -346q-72 0 -130.5 30.5t-89 68.5t-76.5 68.5t-97 30.5q-72 0 -105 -57t-33 -133h-161z" />
<glyph unicode="&#xa1;" horiz-adv-x="585" d="M-8 -410l219 1049h178l-190 -1049h-207zM231 836l41 200h207l-41 -200h-207z" />
<glyph unicode="&#xa2;" horiz-adv-x="1181" d="M117 602q0 172 73.5 327.5t202.5 256t283 114.5l33 170h145l-35 -178q78 -14 139.5 -51t93 -80t53 -85t28.5 -68l6 -27l-181 -68l-5 22q-3 13 -19 48t-40 61.5t-70 48t-105 21.5q-170 0 -283.5 -150.5t-113.5 -361.5q0 -125 62 -196.5t183 -71.5q90 0 170 50t115 99 l33 49l176 -73q-6 -12 -18.5 -31.5t-56.5 -71t-94 -92.5t-130 -76.5t-166 -42.5l-33 -172h-145l35 181q-154 31 -245 148.5t-91 299.5z" />
<glyph unicode="&#xa3;" horiz-adv-x="1193" d="M-6 0l35 176h121l92 477h-90l28 144h90l58 293q31 164 169 272t320 108q197 0 328 -124l12 -15l-133 -127q-8 8 -25.5 22.5t-73 37t-112.5 22.5q-111 0 -188.5 -62.5t-96.5 -156.5l-53 -270h379l-29 -144h-379l-92 -477h668l-35 -176h-993z" />
<glyph unicode="&#xa5;" horiz-adv-x="1239" d="M139 408l25 129h334l16 75l-37 99h-278l24 129h211l-221 606h221l154 -451q33 -94 55 -209h4q57 113 125 207l328 453h241l-456 -606h209l-27 -129h-276l-72 -99l-17 -75h332l-24 -129h-332l-80 -408h-205l80 408h-334z" />
<glyph unicode="&#xa7;" horiz-adv-x="894" d="M-23 -16l109 120q70 -63 186 -63q123 0 191.5 80t71.5 207l14 788h162l-15 -797q-4 -186 -116.5 -316t-309.5 -130q-170 0 -286 104zM207 227l14 799q4 186 116 315t310 129q170 0 287 -104l6 -6l-109 -119q-70 63 -184 64q-125 0 -193.5 -81t-70.5 -208l-14 -789h-162z " />
<glyph unicode="&#xa8;" horiz-adv-x="1021" d="M131 1599l41 207h164l-41 -207h-164zM475 1599l39 207h164l-41 -207h-162z" />
<glyph unicode="&#xa9;" horiz-adv-x="1697" d="M137 723q0 311 212 529t515 218q305 0 519 -218t214 -529t-214 -529.5t-519 -218.5q-303 0 -515 218.5t-212 529.5zM287 723q0 -256 167 -432t410 -176q248 0 416 176t168 432t-168 432t-416 176q-244 0 -410.5 -176t-166.5 -432zM475 721q0 168 111.5 288.5t292.5 120.5 q195 0 311 -165l22 -37l-125 -68q-8 14 -23 36t-67.5 57.5t-111.5 35.5q-117 0 -185.5 -79t-68.5 -189q0 -115 67.5 -191.5t186.5 -76.5q59 0 110.5 32.5t71.5 63.5l20 33l125 -68q-4 -8 -12 -21.5t-37.5 -49t-64.5 -62.5t-94.5 -48.5t-124.5 -21.5q-180 0 -292 120 t-112 290z" />
<glyph unicode="&#xaa;" horiz-adv-x="856" d="M131 543l23 116h563l-25 -116h-561zM213 956q0 250 420 250h35q6 35 6 51q0 90 -109 91q-41 0 -87 -14.5t-72 -26.5l-25 -15l-41 105q106 70 258 69q223 0 223 -198q0 -39 -10 -86l-76 -385h-139l18 94h-4q-8 -12 -24.5 -30.5t-69.5 -48.5t-113 -30q-76 0 -133 46 t-57 128zM367 973q0 -31 22.5 -50.5t65.5 -19.5q66 0 121 60.5t67 119.5l4 19h-24q-256 0 -256 -129z" />
<glyph unicode="&#xab;" horiz-adv-x="1134" d="M76 582l391 417h209l-410 -430l262 -411h-188zM483 582l424 417h213l-446 -430l262 -411h-188z" />
<glyph unicode="&#xac;" horiz-adv-x="1290" d="M143 696v160h977v-547h-166v387h-811z" />
<glyph unicode="&#xad;" horiz-adv-x="882" d="M6 496l33 176h598l-33 -176h-598z" />
<glyph unicode="&#xae;" horiz-adv-x="1697" d="M137 723q0 311 212 529t515 218q305 0 519 -218t214 -529t-214 -529.5t-519 -218.5q-303 0 -515 218.5t-212 529.5zM287 723q0 -256 167 -432t410 -176q248 0 416 176t168 432t-168 432t-416 176q-244 0 -410.5 -176t-166.5 -432zM614 340v772h297q111 0 177.5 -64.5 t66.5 -170.5q0 -82 -43 -136.5t-98 -68.5v-4q8 -8 26 -43l148 -285h-160l-143 299h-125v-299h-146zM760 745h123q57 0 91 35t34 97q0 59 -34 91.5t-91 32.5h-123v-256z" />
<glyph unicode="&#xaf;" horiz-adv-x="1021" d="M131 1606l27 143h520l-27 -143h-520z" />
<glyph unicode="&#xb0;" horiz-adv-x="792" d="M186 1130q0 133 107.5 236.5t241.5 103.5q123 0 201.5 -75.5t78.5 -190.5q0 -135 -108.5 -237.5t-239.5 -102.5q-123 0 -202 74.5t-79 191.5zM346 1139q0 -55 35 -89t94 -34q70 0 125 53t55 125q0 55 -35.5 91t-93.5 36q-72 0 -126 -55t-54 -127z" />
<glyph unicode="&#xb1;" horiz-adv-x="1433" d="M145 504v160h459v503h168v-503h457v-160h-457v-504h-168v504h-459zM178 -195h1018v-159h-1018v159z" />
<glyph unicode="&#xb2;" horiz-adv-x="796" d="M-8 866q2 119 60.5 209t139 143.5t161.5 98.5t137.5 99t56.5 118q0 47 -34 76.5t-89 29.5q-45 0 -93 -24.5t-73 -48.5l-27 -25l-90 100q14 16 40 39t102.5 62t150.5 39q121 0 197 -64.5t76 -171.5q0 -88 -48.5 -157.5t-119 -115.5t-143 -85t-133 -86t-77.5 -101h430 l-26 -135h-598z" />
<glyph unicode="&#xb3;" horiz-adv-x="796" d="M8 981l96 100q8 -10 23.5 -25.5t71 -42t116.5 -26.5q78 0 135.5 52.5t57.5 127.5q0 55 -46 88t-110 33h-69l-25 78l221 211l60 49v4q-39 -6 -74 -6h-283l25 137h557l-19 -98l-274 -258q76 -14 135.5 -73.5t59.5 -162.5q0 -127 -101.5 -225t-251.5 -98q-88 0 -164.5 33.5 t-107.5 66.5z" />
<glyph unicode="&#xb4;" horiz-adv-x="1021" d="M186 1546l201 260h223l-245 -260h-179z" />
<glyph unicode="&#xb5;" horiz-adv-x="1265" d="M-29 -410l281 1446h199l-119 -610q-12 -68 -13 -119q0 -72 36 -109.5t120 -37.5q150 0 266.5 123t147.5 282l92 471h199l-201 -1036h-195l25 121l27 98h-5q-53 -92 -165.5 -168t-253.5 -76q-125 0 -185 68h-4q-6 -104 -18 -164l-58 -289h-176z" />
<glyph unicode="&#x3bc;" horiz-adv-x="1265" d="M-29 -410l281 1446h199l-119 -610q-12 -68 -13 -119q0 -72 36 -109.5t120 -37.5q150 0 266.5 123t147.5 282l92 471h199l-201 -1036h-195l25 121l27 98h-5q-53 -92 -165.5 -168t-253.5 -76q-125 0 -185 68h-4q-6 -104 -18 -164l-58 -289h-176z" />
<glyph unicode="&#xb6;" horiz-adv-x="1210" d="M147 909q0 215 173.5 376t388.5 161h581l-33 -176h-403l-266 -1372h-154l115 596q-162 0 -282 119.5t-120 295.5zM715 -102l241 1255h154l-244 -1255h-151z" />
<glyph unicode="&#xb7;" horiz-adv-x="552" d="M147 485l41 215h207l-41 -215h-207z" />
<glyph unicode="&#xb8;" horiz-adv-x="1021" d="M184 -410l23 117q39 -12 84 -12t77.5 17.5t32.5 56.5q0 53 -96 53l-37 -2l103 227l96 -20l-2 -17l-47 -112q51 -8 87 -42t36 -92q0 -94 -73 -141t-163 -47q-33 0 -62.5 3t-43.5 7z" />
<glyph unicode="&#xb9;" horiz-adv-x="796" d="M43 866l25 135h190l96 500l17 53h-4q-12 -16 -45 -45l-82 -65l-78 106l260 211h137l-147 -760h188l-27 -135h-530z" />
<glyph unicode="&#xba;" horiz-adv-x="950" d="M141 543l23 116h641l-23 -116h-641zM217 1071q0 164 124 280.5t280 116.5q135 0 221 -79.5t86 -206.5q0 -164 -124 -280t-282 -116q-133 0 -219 80t-86 205zM367 1083q0 -76 46 -120.5t119 -44.5q94 0 170 74.5t76 181.5q0 72 -46 117.5t-118 45.5q-96 0 -171.5 -75 t-75.5 -179z" />
<glyph unicode="&#xbb;" horiz-adv-x="1134" d="M2 158l447 430l-263 411h189l264 -424l-426 -417h-211zM446 158l410 430l-262 411h188l265 -424l-392 -417h-209z" />
<glyph unicode="&#xbc;" horiz-adv-x="1966" d="M104 551l25 135h190l97 500l16 53h-4q-12 -16 -45 -45l-82 -66l-78 107l260 211h138l-148 -760h189l-27 -135h-531zM410 0l966 1446h164l-967 -1446h-163zM1087 219l19 103l516 573h176l-106 -541h127l-25 -135h-127l-43 -219h-151l43 219h-429zM1290 354h250l49 252 l31 119h-4q-37 -55 -78 -98l-248 -269v-4z" />
<glyph unicode="&#xbd;" horiz-adv-x="1947" d="M104 551l25 135h190l97 500l16 53h-4q-12 -16 -45 -45l-82 -66l-78 107l260 211h138l-148 -760h189l-27 -135h-531zM414 0l966 1446h164l-966 -1446h-164zM1112 0q2 119 60.5 209t139.5 143t161.5 98.5t137 99.5t56.5 118q0 47 -34 76.5t-89 29.5q-45 0 -93 -24.5 t-75 -49.5l-24 -24l-90 100q14 16 39.5 39t102.5 61.5t150 38.5q121 0 197 -64.5t76 -170.5q0 -88 -48 -157.5t-119 -116t-143.5 -85t-133 -86t-76.5 -100.5h430l-27 -135h-598z" />
<glyph unicode="&#xbe;" horiz-adv-x="1984" d="M84 666l96 100q8 -10 23.5 -25.5t71 -42t116.5 -26.5q78 0 135.5 52t57.5 128q0 55 -46 88t-110 33h-70l-24 78l221 211l59 49v4q-39 -6 -73 -6h-283l25 137h557l-19 -98l-274 -258q76 -14 135 -74t59 -162q0 -127 -101 -225.5t-251 -98.5q-88 0 -165 34t-109 67zM428 0 l967 1446h164l-967 -1446h-164zM1106 219l18 103l516 573h177l-107 -541h127l-25 -135h-126l-44 -219h-151l43 219h-428zM1309 354h250l49 252l30 119h-4q-37 -55 -78 -98l-247 -269v-4z" />
<glyph unicode="&#xbf;" horiz-adv-x="923" d="M-51 -102q0 100 45 183t111.5 139t135 106.5t124 111t67.5 125.5l17 76h194l-18 -88q-18 -90 -72.5 -166t-120.5 -127l-127 -99q-61 -48 -103 -107.5t-42 -129.5q0 -74 53 -121t143 -47q59 0 122 22.5t95 43.5l33 22l88 -153l-51 -33q-33 -20 -128 -53t-185 -33 q-166 0 -273.5 89t-107.5 239zM477 836l41 200h205l-39 -200h-207z" />
<glyph unicode="&#xc0;" horiz-adv-x="1282" d="M-98 0l792 1446h226l235 -1446h-203l-63 416h-545l-225 -416h-217zM428 584h440l-71 458l-21 205h-4q-55 -131 -94 -205zM598 1806h205l96 -260h-158z" />
<glyph unicode="&#xc1;" horiz-adv-x="1282" d="M-98 0l792 1446h226l235 -1446h-203l-63 416h-545l-225 -416h-217zM428 584h440l-71 458l-21 205h-4q-55 -131 -94 -205zM733 1546l201 260h223l-246 -260h-178z" />
<glyph unicode="&#xc2;" horiz-adv-x="1282" d="M-98 0l792 1446h226l235 -1446h-203l-63 416h-545l-225 -416h-217zM428 584h440l-71 458l-21 205h-4q-55 -131 -94 -205zM537 1546l231 260h207l129 -260h-168l-74 164h-4l-139 -164h-182z" />
<glyph unicode="&#xc3;" horiz-adv-x="1282" d="M-98 0l792 1446h226l235 -1446h-203l-63 416h-545l-225 -416h-217zM428 584h440l-71 458l-21 205h-4q-55 -131 -94 -205zM498 1548q49 260 243 260q55 0 94.5 -34.5t68 -69.5t61.5 -35q78 0 100 133h145q-51 -260 -243 -260q-53 0 -92 35t-70 69.5t-64 34.5 q-72 0 -98 -133h-145z" />
<glyph unicode="&#xc4;" horiz-adv-x="1282" d="M-98 0l792 1446h226l235 -1446h-203l-63 416h-545l-225 -416h-217zM428 584h440l-71 458l-21 205h-4q-55 -131 -94 -205zM588 1599l41 207h164l-41 -207h-164zM932 1599l39 207h164l-41 -207h-162z" />
<glyph unicode="&#xc5;" horiz-adv-x="1282" d="M-98 0l792 1446h226l235 -1446h-203l-63 416h-545l-225 -416h-217zM428 584h440l-71 458l-21 205h-4q-55 -131 -94 -205zM678 1655q0 76 59.5 124t132.5 48q72 0 116 -36t44 -99q0 -74 -60.5 -122t-133.5 -48q-70 0 -114 35t-44 98zM784 1657q0 -51 58 -51 q33 0 57.5 24.5t24.5 59.5q0 25 -15.5 40t-42.5 15q-33 0 -57.5 -25.5t-24.5 -62.5z" />
<glyph unicode="&#xc6;" horiz-adv-x="1816" d="M-102 0l874 1446h1075l-35 -176h-638l-89 -453h519l-35 -176h-518l-90 -465h671l-35 -176h-872l125 643h-344l-383 -643h-225zM606 811h277l88 459h-92z" />
<glyph unicode="&#xc7;" horiz-adv-x="1484" d="M115 602q0 231 118.5 433t316.5 318.5t421 116.5q102 0 193 -19t148.5 -48t100.5 -57.5t62 -47.5l18 -20l-121 -139q-16 16 -47 40.5t-133 64.5t-215 40q-270 0 -461.5 -201.5t-191.5 -470.5q0 -197 117.5 -323.5t322.5 -126.5q236 0 453 164l28 22l88 -160l-28 -22 q-18 -14 -78 -51t-123.5 -66t-159.5 -51.5t-190 -22.5h-2l-33 -77q51 -8 87 -42t36 -92q0 -94 -73 -141t-163 -47q-33 0 -62.5 3t-43.5 7l-15 4l23 117q39 -12 84 -12t77.5 17.5t32.5 56.5q0 53 -96 53l-37 -2l74 164q-246 33 -387 200.5t-141 417.5z" />
<glyph unicode="&#xc8;" horiz-adv-x="1171" d="M78 0l284 1446h838l-35 -176h-637l-88 -453h518l-34 -176h-518l-91 -465h672l-33 -176h-876zM592 1806h205l96 -260h-158z" />
<glyph unicode="&#xc9;" horiz-adv-x="1171" d="M78 0l284 1446h838l-35 -176h-637l-88 -453h518l-34 -176h-518l-91 -465h672l-33 -176h-876zM727 1546l201 260h223l-246 -260h-178z" />
<glyph unicode="&#xca;" horiz-adv-x="1171" d="M78 0l284 1446h838l-35 -176h-637l-88 -453h518l-34 -176h-518l-91 -465h672l-33 -176h-876zM530 1546l232 260h207l129 -260h-168l-74 164h-4l-139 -164h-183z" />
<glyph unicode="&#xcb;" horiz-adv-x="1171" d="M78 0l284 1446h838l-35 -176h-637l-88 -453h518l-34 -176h-518l-91 -465h672l-33 -176h-876zM580 1599l41 207h163l-41 -207h-163zM924 1599l39 207h163l-41 -207h-161z" />
<glyph unicode="&#xcc;" horiz-adv-x="595" d="M78 0l282 1446h201l-280 -1446h-203zM252 1806h205l96 -260h-158z" />
<glyph unicode="&#xcd;" horiz-adv-x="595" d="M78 0l282 1446h201l-280 -1446h-203zM385 1546l201 260h223l-246 -260h-178z" />
<glyph unicode="&#xce;" horiz-adv-x="595" d="M78 0l282 1446h201l-280 -1446h-203zM190 1546l232 260h207l129 -260h-168l-74 164h-4l-139 -164h-183z" />
<glyph unicode="&#xcf;" horiz-adv-x="595" d="M78 0l282 1446h201l-280 -1446h-203zM242 1599l41 207h163l-40 -207h-164zM586 1599l39 207h163l-40 -207h-162z" />
<glyph unicode="&#xd0;" horiz-adv-x="1550" d="M115 0l123 639h-119l33 168h118l125 639h447q299 0 469 -147.5t170 -415.5q0 -242 -107.5 -442.5t-304.5 -320.5t-442 -120h-512zM348 176h264q287 0 473.5 197.5t186.5 492.5q0 195 -119 299.5t-328 104.5h-262l-92 -463h309l-32 -168h-310z" />
<glyph unicode="&#xd1;" horiz-adv-x="1536" d="M78 0l282 1446h187l463 -940q37 -76 77 -209h5q10 129 26 209l182 940h203l-282 -1446h-187l-463 938q-39 80 -79 211h-5q-10 -129 -26 -211l-182 -938h-201zM618 1548q49 260 244 260q55 0 94 -34.5t68 -69.5t61 -35q78 0 101 133h145q-51 -260 -244 -260q-53 0 -92 35 t-69.5 69.5t-63.5 34.5q-72 0 -98 -133h-146z" />
<glyph unicode="&#xd2;" horiz-adv-x="1677" d="M109 606q0 227 122.5 429t322.5 318.5t417 116.5q289 0 467 -172t178 -442q0 -231 -125 -437t-324.5 -325t-414.5 -119q-289 0 -466 177.5t-177 453.5zM315 614q0 -201 123 -326.5t316 -125.5q250 0 451.5 203.5t201.5 480.5q0 195 -122 316.5t-316 121.5 q-252 0 -453 -199t-201 -471zM786 1806h205l96 -260h-157z" />
<glyph unicode="&#xd3;" horiz-adv-x="1677" d="M109 606q0 227 122.5 429t322.5 318.5t417 116.5q289 0 467 -172t178 -442q0 -231 -125 -437t-324.5 -325t-414.5 -119q-289 0 -466 177.5t-177 453.5zM315 614q0 -201 123 -326.5t316 -125.5q250 0 451.5 203.5t201.5 480.5q0 195 -122 316.5t-316 121.5 q-252 0 -453 -199t-201 -471zM922 1546l200 260h224l-246 -260h-178z" />
<glyph unicode="&#xd4;" horiz-adv-x="1677" d="M109 606q0 227 122.5 429t322.5 318.5t417 116.5q289 0 467 -172t178 -442q0 -231 -125 -437t-324.5 -325t-414.5 -119q-289 0 -466 177.5t-177 453.5zM315 614q0 -201 123 -326.5t316 -125.5q250 0 451.5 203.5t201.5 480.5q0 195 -122 316.5t-316 121.5 q-252 0 -453 -199t-201 -471zM725 1546l231 260h207l129 -260h-168l-73 164h-4l-140 -164h-182z" />
<glyph unicode="&#xd5;" horiz-adv-x="1677" d="M109 606q0 227 122.5 429t322.5 318.5t417 116.5q289 0 467 -172t178 -442q0 -231 -125 -437t-324.5 -325t-414.5 -119q-289 0 -466 177.5t-177 453.5zM315 614q0 -201 123 -326.5t316 -125.5q250 0 451.5 203.5t201.5 480.5q0 195 -122 316.5t-316 121.5 q-252 0 -453 -199t-201 -471zM686 1548q49 260 244 260q55 0 94 -34.5t67.5 -69.5t61.5 -35q78 0 100 133h146q-51 -260 -244 -260q-53 0 -92 35t-69.5 69.5t-63.5 34.5q-72 0 -99 -133h-145z" />
<glyph unicode="&#xd6;" horiz-adv-x="1677" d="M109 606q0 227 122.5 429t322.5 318.5t417 116.5q289 0 467 -172t178 -442q0 -231 -125 -437t-324.5 -325t-414.5 -119q-289 0 -466 177.5t-177 453.5zM315 614q0 -201 123 -326.5t316 -125.5q250 0 451.5 203.5t201.5 480.5q0 195 -122 316.5t-316 121.5 q-252 0 -453 -199t-201 -471zM776 1599l41 207h164l-41 -207h-164zM1120 1599l39 207h164l-41 -207h-162z" />
<glyph unicode="&#xd7;" horiz-adv-x="1409" d="M170 113l422 471l-422 471l113 112l417 -467l420 467l113 -112l-424 -471l424 -471l-113 -113l-420 465l-417 -465z" />
<glyph unicode="&#xd8;" horiz-adv-x="1681" d="M113 606q0 227 122.5 429t322.5 318.5t417 116.5q221 0 385 -108l127 137l94 -78l-127 -137q164 -170 164 -428q0 -231 -124 -437t-323.5 -325t-414.5 -119q-229 0 -398 119l-133 -145l-94 76l137 149q-155 172 -155 432zM319 614q0 -172 89 -288l817 886 q-111 72 -252 72q-252 0 -453 -199t-201 -471zM496 242q109 -80 262 -80q248 0 449.5 203.5t201.5 480.5q0 168 -94 284z" />
<glyph unicode="&#xd9;" horiz-adv-x="1488" d="M147 403q0 55 13 117l180 926h201l-181 -932q-8 -39 -8 -86q0 -127 80 -196.5t225 -69.5q168 0 285 94t150 262l182 928h201l-185 -944q-47 -242 -219 -384.5t-418 -142.5q-225 0 -365.5 113.5t-140.5 314.5zM696 1806h205l96 -260h-157z" />
<glyph unicode="&#xda;" horiz-adv-x="1488" d="M147 403q0 55 13 117l180 926h201l-181 -932q-8 -39 -8 -86q0 -127 80 -196.5t225 -69.5q168 0 285 94t150 262l182 928h201l-185 -944q-47 -242 -219 -384.5t-418 -142.5q-225 0 -365.5 113.5t-140.5 314.5zM831 1546l201 260h223l-245 -260h-179z" />
<glyph unicode="&#xdb;" horiz-adv-x="1488" d="M147 403q0 55 13 117l180 926h201l-181 -932q-8 -39 -8 -86q0 -127 80 -196.5t225 -69.5q168 0 285 94t150 262l182 928h201l-185 -944q-47 -242 -219 -384.5t-418 -142.5q-225 0 -365.5 113.5t-140.5 314.5zM635 1546l231 260h207l129 -260h-168l-73 164h-5l-139 -164 h-182z" />
<glyph unicode="&#xdc;" horiz-adv-x="1488" d="M147 403q0 55 13 117l180 926h201l-181 -932q-8 -39 -8 -86q0 -127 80 -196.5t225 -69.5q168 0 285 94t150 262l182 928h201l-185 -944q-47 -242 -219 -384.5t-418 -142.5q-225 0 -365.5 113.5t-140.5 314.5zM684 1599l41 207h164l-41 -207h-164zM1028 1599l39 207h164 l-41 -207h-162z" />
<glyph unicode="&#xdd;" horiz-adv-x="1185" d="M164 1446h217l174 -475q29 -80 53 -183h4q61 98 123 181l355 477h243l-651 -840l-119 -606h-201l121 612zM670 1546l200 260h224l-246 -260h-178z" />
<glyph unicode="&#xde;" horiz-adv-x="1247" d="M78 0l282 1446h203l-49 -246h295q135 0 227 -47q180 -94 181 -322q0 -170 -87.5 -304t-228.5 -195q-102 -43 -215 -43h-348l-57 -289h-203zM371 465h295q88 0 153 33q86 41 137.5 124t51.5 195q0 98 -60.5 152.5t-171.5 54.5h-297z" />
<glyph unicode="&#xdf;" horiz-adv-x="1200" d="M37 0l213 1102q33 172 174 270t309 98q164 0 263.5 -80.5t99.5 -207.5q0 -82 -45 -151.5t-98.5 -107.5t-98.5 -86.5t-45 -91.5q0 -41 44 -89t97.5 -87t97.5 -104.5t44 -136.5q0 -141 -118 -241.5t-272 -100.5q-86 0 -161.5 14t-108.5 29l-33 16l35 172q100 -59 254 -59 q76 0 138.5 43t62.5 127q0 43 -30 84t-72 75l-82 70q-41 35 -71 81t-30 95q0 70 45 132.5t99.5 102.5t99.5 92t45 103q0 57 -43 96t-125 39q-98 0 -178 -59t-103 -168l-208 -1071h-199z" />
<glyph unicode="&#xe0;" d="M0 238q0 119 66.5 204.5t176 127.5t219 59.5t228.5 17.5h51q8 41 9 84q0 162 -187 162q-72 0 -148.5 -24.5t-119.5 -49.5l-41 -24l-53 157q18 12 53 30.5t137.5 48.5t200.5 30q162 0 261 -75t99 -232q0 -57 -12 -115l-125 -639h-184l20 104q14 82 23 82h-4 q2 0 -13.5 -21.5t-46 -52t-71.5 -62.5t-102.5 -53.5t-127.5 -21.5q-129 0 -219 71t-90 192zM203 270q0 -57 42 -96t124 -39q117 0 213 101.5t127 226.5l8 35h-51q-463 -1 -463 -228zM410 1446h204l97 -260h-158z" />
<glyph unicode="&#xe1;" d="M0 238q0 119 66.5 204.5t176 127.5t219 59.5t228.5 17.5h51q8 41 9 84q0 162 -187 162q-72 0 -148.5 -24.5t-119.5 -49.5l-41 -24l-53 157q18 12 53 30.5t137.5 48.5t200.5 30q162 0 261 -75t99 -232q0 -57 -12 -115l-125 -639h-184l20 104q14 82 23 82h-4 q2 0 -13.5 -21.5t-46 -52t-71.5 -62.5t-102.5 -53.5t-127.5 -21.5q-129 0 -219 71t-90 192zM203 270q0 -57 42 -96t124 -39q117 0 213 101.5t127 226.5l8 35h-51q-463 -1 -463 -228zM545 1186l200 260h224l-246 -260h-178z" />
<glyph unicode="&#xe2;" d="M0 238q0 119 66.5 204.5t176 127.5t219 59.5t228.5 17.5h51q8 41 9 84q0 162 -187 162q-72 0 -148.5 -24.5t-119.5 -49.5l-41 -24l-53 157q18 12 53 30.5t137.5 48.5t200.5 30q162 0 261 -75t99 -232q0 -57 -12 -115l-125 -639h-184l20 104q14 82 23 82h-4 q2 0 -13.5 -21.5t-46 -52t-71.5 -62.5t-102.5 -53.5t-127.5 -21.5q-129 0 -219 71t-90 192zM203 270q0 -57 42 -96t124 -39q117 0 213 101.5t127 226.5l8 35h-51q-463 -1 -463 -228zM348 1186l232 260h206l129 -260h-167l-74 164h-4l-140 -164h-182z" />
<glyph unicode="&#xe3;" d="M0 238q0 119 66.5 204.5t176 127.5t219 59.5t228.5 17.5h51q8 41 9 84q0 162 -187 162q-72 0 -148.5 -24.5t-119.5 -49.5l-41 -24l-53 157q18 12 53 30.5t137.5 48.5t200.5 30q162 0 261 -75t99 -232q0 -57 -12 -115l-125 -639h-184l20 104q14 82 23 82h-4 q2 0 -13.5 -21.5t-46 -52t-71.5 -62.5t-102.5 -53.5t-127.5 -21.5q-129 0 -219 71t-90 192zM203 270q0 -57 42 -96t124 -39q117 0 213 101.5t127 226.5l8 35h-51q-463 -1 -463 -228zM309 1188q49 260 244 260q55 0 94 -35t67.5 -69.5t61.5 -34.5q78 0 101 133h145 q-51 -260 -244 -260q-53 0 -92 34.5t-69.5 69.5t-63.5 35q-72 0 -98 -133h-146z" />
<glyph unicode="&#xe4;" d="M0 238q0 119 66.5 204.5t176 127.5t219 59.5t228.5 17.5h51q8 41 9 84q0 162 -187 162q-72 0 -148.5 -24.5t-119.5 -49.5l-41 -24l-53 157q18 12 53 30.5t137.5 48.5t200.5 30q162 0 261 -75t99 -232q0 -57 -12 -115l-125 -639h-184l20 104q14 82 23 82h-4 q2 0 -13.5 -21.5t-46 -52t-71.5 -62.5t-102.5 -53.5t-127.5 -21.5q-129 0 -219 71t-90 192zM203 270q0 -57 42 -96t124 -39q117 0 213 101.5t127 226.5l8 35h-51q-463 -1 -463 -228zM397 1239l41 207h164l-41 -207h-164zM741 1239l39 207h164l-41 -207h-162z" />
<glyph unicode="&#xe5;" d="M0 238q0 119 66.5 204.5t176 127.5t219 59.5t228.5 17.5h51q8 41 9 84q0 162 -187 162q-72 0 -148.5 -24.5t-119.5 -49.5l-41 -24l-53 157q18 12 53 30.5t137.5 48.5t200.5 30q162 0 261 -75t99 -232q0 -57 -12 -115l-125 -639h-184l20 104q14 82 23 82h-4 q2 0 -13.5 -21.5t-46 -52t-71.5 -62.5t-102.5 -53.5t-127.5 -21.5q-129 0 -219 71t-90 192zM203 270q0 -57 42 -96t124 -39q117 0 213 101.5t127 226.5l8 35h-51q-463 -1 -463 -228zM487 1294q0 76 59.5 124t133.5 48q72 0 116 -35.5t44 -99.5q0 -74 -60.5 -122t-134.5 -48 q-70 0 -114 35t-44 98zM594 1296q0 -51 57 -51q33 0 57.5 24.5t24.5 59.5q0 25 -15.5 40t-41.5 15q-33 0 -57.5 -25.5t-24.5 -62.5z" />
<glyph unicode="&#xe6;" horiz-adv-x="1761" d="M2 238q0 121 63.5 204.5t172 124.5t217 57.5t233.5 16.5h53q10 66 11 88q0 164 -193 164q-147 -2 -303 -98l-53 157q20 12 54 30.5t135.5 48.5t195.5 30q248 0 311 -174h4q154 174 385 174q195 0 296.5 -103.5t101.5 -281.5q0 -35 -7.5 -80t-15.5 -74l-8 -28h-746 q-6 -37 -6 -68q0 -125 74 -202t209 -77q80 0 162 31t125 60l43 30l57 -157q-18 -14 -53 -37t-139.5 -61t-202.5 -38q-160 0 -272.5 69t-155.5 187h-5q-12 -27 -38.5 -61.5t-76.5 -82.5t-131 -80t-175 -32q-137 0 -229.5 70t-92.5 193zM205 270q0 -59 43 -97t123 -38 q119 0 214 102.5t124 227.5l6 27h-94q-416 -1 -416 -222zM946 643h537q4 33 4 53q0 100 -56.5 153.5t-144.5 53.5q-115 0 -205 -68.5t-135 -191.5z" />
<glyph unicode="&#xe7;" horiz-adv-x="1120" d="M55 426q0 262 190.5 448.5t448.5 186.5q236 0 373 -131l18 -19l-110 -129q-10 12 -31.5 29.5t-92.5 47.5t-146 30q-178 0 -312.5 -132t-134.5 -317q0 -131 83 -212t220 -81q86 0 173 35t130 70l45 35l56 -158q-18 -16 -53 -42t-146 -69t-223 -43h-4l-33 -77q51 -8 87 -42 t36 -92q0 -94 -73 -141t-163 -47q-33 0 -62.5 3t-43.5 7l-15 4l23 117q39 -12 84 -12t77.5 17.5t32.5 56.5q0 53 -96 53l-37 -2l74 166q-174 29 -274.5 147.5t-100.5 292.5z" />
<glyph unicode="&#xe8;" horiz-adv-x="1128" d="M55 418q0 262 173 452.5t429 190.5q195 0 295.5 -104.5t100.5 -278.5q0 -37 -8.5 -84t-16.5 -76l-8 -29h-756q-6 -31 -6 -61q0 -121 78 -201t217 -80q80 0 162 31t125 60l43 30l57 -157q-18 -14 -53 -37t-139.5 -61t-202.5 -38q-223 0 -356.5 123t-133.5 320zM297 639 h553q4 23 4 55q0 100 -55.5 154.5t-145.5 54.5q-115 0 -212 -71.5t-144 -192.5zM479 1446h205l96 -260h-157z" />
<glyph unicode="&#xe9;" horiz-adv-x="1128" d="M55 418q0 262 173 452.5t429 190.5q195 0 295.5 -104.5t100.5 -278.5q0 -37 -8.5 -84t-16.5 -76l-8 -29h-756q-6 -31 -6 -61q0 -121 78 -201t217 -80q80 0 162 31t125 60l43 30l57 -157q-18 -14 -53 -37t-139.5 -61t-202.5 -38q-223 0 -356.5 123t-133.5 320zM297 639 h553q4 23 4 55q0 100 -55.5 154.5t-145.5 54.5q-115 0 -212 -71.5t-144 -192.5zM614 1186l201 260h223l-245 -260h-179z" />
<glyph unicode="&#xea;" horiz-adv-x="1128" d="M55 418q0 262 173 452.5t429 190.5q195 0 295.5 -104.5t100.5 -278.5q0 -37 -8.5 -84t-16.5 -76l-8 -29h-756q-6 -31 -6 -61q0 -121 78 -201t217 -80q80 0 162 31t125 60l43 30l57 -157q-18 -14 -53 -37t-139.5 -61t-202.5 -38q-223 0 -356.5 123t-133.5 320zM297 639 h553q4 23 4 55q0 100 -55.5 154.5t-145.5 54.5q-115 0 -212 -71.5t-144 -192.5zM418 1186l231 260h207l129 -260h-168l-74 164h-4l-139 -164h-182z" />
<glyph unicode="&#xeb;" horiz-adv-x="1128" d="M55 418q0 262 173 452.5t429 190.5q195 0 295.5 -104.5t100.5 -278.5q0 -37 -8.5 -84t-16.5 -76l-8 -29h-756q-6 -31 -6 -61q0 -121 78 -201t217 -80q80 0 162 31t125 60l43 30l57 -157q-18 -14 -53 -37t-139.5 -61t-202.5 -38q-223 0 -356.5 123t-133.5 320zM297 639 h553q4 23 4 55q0 100 -55.5 154.5t-145.5 54.5q-115 0 -212 -71.5t-144 -192.5zM469 1239l41 207h164l-41 -207h-164zM813 1239l39 207h164l-41 -207h-162z" />
<glyph unicode="&#xec;" horiz-adv-x="507" d="M37 0l201 1036h198l-200 -1036h-199zM137 1446h205l96 -260h-157z" />
<glyph unicode="&#xed;" horiz-adv-x="507" d="M37 0l201 1036h198l-200 -1036h-199zM272 1186l201 260h223l-245 -260h-179z" />
<glyph unicode="&#xee;" horiz-adv-x="507" d="M37 0l201 1036h198l-200 -1036h-199zM76 1186l231 260h207l129 -260h-168l-74 164h-4l-139 -164h-182z" />
<glyph unicode="&#xef;" horiz-adv-x="507" d="M37 0l201 1036h198l-200 -1036h-199zM125 1239l41 207h164l-41 -207h-164zM469 1239l39 207h164l-41 -207h-162z" />
<glyph unicode="&#xf0;" horiz-adv-x="1202" d="M51 391q0 217 161 390t417 173q76 0 139 -23.5t88 -45.5l27 -25h4q-35 164 -174 283l-406 -162l4 129l285 115q-111 63 -250 100l82 148q217 -55 373 -166l325 131l-2 -129l-221 -88q199 -203 199 -502q0 -90 -21.5 -187.5t-69.5 -198t-117 -179t-175.5 -129 t-231.5 -50.5q-209 0 -322.5 119t-113.5 297zM254 395q0 -109 60.5 -178.5t174.5 -69.5q166 0 279 141.5t113 295.5q0 94 -65.5 152.5t-178.5 58.5q-162 0 -272.5 -119t-110.5 -281z" />
<glyph unicode="&#xf1;" horiz-adv-x="1232" d="M37 0l201 1036h194l-22 -121l-29 -98h4q49 90 168 167t260 77q143 0 223 -68.5t80 -206.5q0 -49 -14 -131l-127 -655h-199l119 612q14 76 14 117q0 150 -153.5 150t-275.5 -119t-154 -287l-90 -473h-199zM422 1188q49 260 244 260q55 0 94 -35t67.5 -69.5t61.5 -34.5 q78 0 100 133h146q-51 -260 -244 -260q-53 0 -92 34.5t-70 69.5t-63 35q-72 0 -99 -133h-145z" />
<glyph unicode="&#xf2;" horiz-adv-x="1273" d="M53 432q0 260 195.5 444.5t445.5 184.5q217 0 354.5 -126t137.5 -327q0 -262 -195.5 -447.5t-443.5 -185.5q-219 0 -356.5 127t-137.5 330zM256 440q0 -131 82 -212t211 -81q166 0 300 132.5t134 318.5q0 129 -82 210t-209 81q-170 0 -303 -131.5t-133 -317.5zM520 1446 h205l96 -260h-157z" />
<glyph unicode="&#xf3;" horiz-adv-x="1273" d="M53 432q0 260 195.5 444.5t445.5 184.5q217 0 354.5 -126t137.5 -327q0 -262 -195.5 -447.5t-443.5 -185.5q-219 0 -356.5 127t-137.5 330zM256 440q0 -131 82 -212t211 -81q166 0 300 132.5t134 318.5q0 129 -82 210t-209 81q-170 0 -303 -131.5t-133 -317.5zM655 1186 l201 260h223l-245 -260h-179z" />
<glyph unicode="&#xf4;" horiz-adv-x="1273" d="M53 432q0 260 195.5 444.5t445.5 184.5q217 0 354.5 -126t137.5 -327q0 -262 -195.5 -447.5t-443.5 -185.5q-219 0 -356.5 127t-137.5 330zM256 440q0 -131 82 -212t211 -81q166 0 300 132.5t134 318.5q0 129 -82 210t-209 81q-170 0 -303 -131.5t-133 -317.5zM459 1186 l231 260h207l129 -260h-168l-74 164h-4l-139 -164h-182z" />
<glyph unicode="&#xf5;" horiz-adv-x="1273" d="M53 432q0 260 195.5 444.5t445.5 184.5q217 0 354.5 -126t137.5 -327q0 -262 -195.5 -447.5t-443.5 -185.5q-219 0 -356.5 127t-137.5 330zM256 440q0 -131 82 -212t211 -81q166 0 300 132.5t134 318.5q0 129 -82 210t-209 81q-170 0 -303 -131.5t-133 -317.5zM418 1188 q49 260 244 260q55 0 94 -35t67.5 -69.5t61.5 -34.5q78 0 100 133h145q-51 -260 -243 -260q-53 0 -92 34.5t-70 69.5t-63 35q-72 0 -99 -133h-145z" />
<glyph unicode="&#xf6;" horiz-adv-x="1273" d="M53 432q0 260 195.5 444.5t445.5 184.5q217 0 354.5 -126t137.5 -327q0 -262 -195.5 -447.5t-443.5 -185.5q-219 0 -356.5 127t-137.5 330zM256 440q0 -131 82 -212t211 -81q166 0 300 132.5t134 318.5q0 129 -82 210t-209 81q-170 0 -303 -131.5t-133 -317.5zM508 1239 l41 207h164l-41 -207h-164zM852 1239l39 207h164l-41 -207h-162z" />
<glyph unicode="&#xf7;" horiz-adv-x="1292" d="M123 504v160h1034v-160h-1034zM543 90v186h192v-186h-192zM543 891v186h192v-186h-192z" />
<glyph unicode="&#xf8;" horiz-adv-x="1273" d="M53 432q0 260 195.5 444.5t445.5 184.5q164 0 287 -76l111 121l92 -76l-111 -121q113 -123 113 -301q0 -262 -195.5 -447.5t-443.5 -185.5q-152 0 -275 68l-110 -121l-90 78l106 115q-125 124 -125 317zM256 440q0 -109 55 -182l541 588q-74 43 -160 43 q-170 0 -303 -131.5t-133 -317.5zM401 182q63 -35 148 -35q166 0 300 132.5t134 318.5q0 92 -45 166z" />
<glyph unicode="&#xf9;" horiz-adv-x="1220" d="M80 250q0 49 14 131l127 655h199l-119 -610q-12 -68 -12 -119q0 -72 35.5 -109.5t119.5 -37.5q150 0 266.5 123t147.5 282l92 471h199l-201 -1036h-194l24 121l27 98h-4q-53 -92 -166 -168t-254 -76q-133 0 -217 67t-84 208zM483 1446h205l96 -260h-157z" />
<glyph unicode="&#xfa;" horiz-adv-x="1220" d="M80 250q0 49 14 131l127 655h199l-119 -610q-12 -68 -12 -119q0 -72 35.5 -109.5t119.5 -37.5q150 0 266.5 123t147.5 282l92 471h199l-201 -1036h-194l24 121l27 98h-4q-53 -92 -166 -168t-254 -76q-133 0 -217 67t-84 208zM618 1186l201 260h223l-245 -260h-179z" />
<glyph unicode="&#xfb;" horiz-adv-x="1220" d="M80 250q0 49 14 131l127 655h199l-119 -610q-12 -68 -12 -119q0 -72 35.5 -109.5t119.5 -37.5q150 0 266.5 123t147.5 282l92 471h199l-201 -1036h-194l24 121l27 98h-4q-53 -92 -166 -168t-254 -76q-133 0 -217 67t-84 208zM422 1186l231 260h207l129 -260h-168l-73 164 h-5l-139 -164h-182z" />
<glyph unicode="&#xfc;" horiz-adv-x="1220" d="M80 250q0 49 14 131l127 655h199l-119 -610q-12 -68 -12 -119q0 -72 35.5 -109.5t119.5 -37.5q150 0 266.5 123t147.5 282l92 471h199l-201 -1036h-194l24 121l27 98h-4q-53 -92 -166 -168t-254 -76q-133 0 -217 67t-84 208zM473 1239l41 207h164l-41 -207h-164z M817 1239l39 207h164l-41 -207h-162z" />
<glyph unicode="&#xfd;" horiz-adv-x="1042" d="M-188 -362l92 141q43 -37 112 -37q129 0 220 149l75 123l-237 1022h207l139 -700l16 -123h2q31 68 60 119l389 704h223l-727 -1226q-143 -240 -358 -240q-125 0 -213 68zM532 1186l201 260h223l-245 -260h-179z" />
<glyph unicode="&#xfe;" horiz-adv-x="1226" d="M-43 -410l358 1856h197l-94 -481l-21 -82h4q55 78 146.5 128t200.5 50q182 0 284.5 -115t102.5 -311q0 -285 -170 -472.5t-394 -187.5q-102 0 -187 46.5t-122 134.5h-4q-2 -43 -12 -97l-92 -469h-197zM319 414q0 -117 58.5 -192t173.5 -75q145 0 263 131.5t118 342.5 q0 125 -62.5 195.5t-171.5 70.5q-156 0 -267.5 -144.5t-111.5 -328.5z" />
<glyph unicode="&#xff;" horiz-adv-x="1042" d="M-188 -362l92 141q43 -37 112 -37q129 0 220 149l75 123l-237 1022h207l139 -700l16 -123h2q31 68 60 119l389 704h223l-727 -1226q-143 -240 -358 -240q-125 0 -213 68zM387 1239l41 207h164l-41 -207h-164zM731 1239l39 207h164l-41 -207h-162z" />
<glyph unicode="&#x152;" horiz-adv-x="1964" d="M109 598q0 229 120.5 431t319.5 318.5t422 116.5q63 0 156.5 -9t132.5 -9h735l-35 -176h-639l-88 -453h518l-35 -176h-518l-90 -465h674l-35 -176h-743q-31 0 -116 -9t-138 -9q-289 0 -465 173t-176 443zM315 598q0 -193 121 -314.5t324 -121.5q37 0 73.5 4t55.5 8l18 4 l211 1092q-59 14 -141 14q-268 0 -465 -202.5t-197 -483.5z" />
<glyph unicode="&#x153;" horiz-adv-x="2039" d="M53 432q0 260 194.5 444.5t444.5 184.5q145 0 254 -65.5t162 -180.5h4q80 115 199 180.5t258 65.5q195 0 295 -104.5t100 -278.5q0 -37 -8 -84t-17 -76l-8 -29h-753q-6 -35 -7 -63q0 -127 82 -203t213 -76q78 0 161 31t126 60l43 30l55 -157q-18 -14 -53 -37t-139.5 -61 t-202.5 -38q-154 0 -264.5 67t-161.5 185h-4q-88 -117 -216 -184.5t-265 -67.5q-219 0 -355.5 127t-136.5 330zM256 440q0 -131 81 -212t210 -81q166 0 300 132.5t134 318.5q0 129 -81 210t-210 81q-168 0 -301 -131.5t-133 -317.5zM1210 639h551q6 27 6 55q0 100 -55 154.5 t-145 54.5q-117 0 -213.5 -70.5t-143.5 -193.5z" />
<glyph unicode="&#x178;" horiz-adv-x="1185" d="M164 1446h217l174 -475q29 -80 53 -183h4q61 98 123 181l355 477h243l-651 -840l-119 -606h-201l121 612zM522 1599l41 207h164l-41 -207h-164zM866 1599l39 207h164l-41 -207h-162z" />
<glyph unicode="&#x2c6;" horiz-adv-x="1021" d="M82 1546l231 260h207l129 -260h-168l-73 164h-5l-139 -164h-182z" />
<glyph unicode="&#x2dc;" horiz-adv-x="1021" d="M39 1548q49 260 244 260q55 0 94 -34.5t67.5 -69.5t61.5 -35q78 0 100 133h146q-51 -260 -244 -260q-53 0 -92 35t-70 69.5t-63 34.5q-72 0 -99 -133h-145z" />
<glyph unicode="&#x2013;" horiz-adv-x="1435" d="M158 504l30 160h1078l-31 -160h-1077z" />
<glyph unicode="&#x2014;" horiz-adv-x="1845" d="M158 504l30 160h1487l-30 -160h-1487z" />
<glyph unicode="&#x2018;" horiz-adv-x="464" d="M182 1071l211 397h154l-164 -397h-201z" />
<glyph unicode="&#x2019;" horiz-adv-x="452" d="M188 1071l164 397h201l-211 -397h-154z" />
<glyph unicode="&#x201a;" horiz-adv-x="509" d="M-66 -184l164 399h201l-211 -399h-154z" />
<glyph unicode="&#x201c;" horiz-adv-x="753" d="M182 1071l211 397h154l-164 -397h-201zM471 1071l211 397h154l-164 -397h-201z" />
<glyph unicode="&#x201d;" horiz-adv-x="741" d="M188 1071l166 397h199l-209 -397h-156zM477 1071l166 397h199l-209 -397h-156z" />
<glyph unicode="&#x201e;" horiz-adv-x="798" d="M-66 -184l164 399h201l-209 -399h-156zM223 -184l166 399h199l-209 -399h-156z" />
<glyph unicode="&#x2022;" horiz-adv-x="837" d="M98 596q0 133 92.5 225t225.5 92q131 0 223 -93t92 -224t-92 -224t-223 -93q-133 0 -225.5 92t-92.5 225z" />
<glyph unicode="&#x2026;" horiz-adv-x="1568" d="M35 0l41 215h209l-43 -215h-207zM565 0l43 215h207l-41 -215h-209zM1098 0l41 215h209l-43 -215h-207z" />
<glyph unicode="&#x2039;" horiz-adv-x="708" d="M76 582l391 417h209l-410 -430l262 -411h-188z" />
<glyph unicode="&#x203a;" horiz-adv-x="708" d="M18 158l410 430l-260 411h188l265 -424l-394 -417h-209z" />
<glyph unicode="&#x20ac;" horiz-adv-x="1202" d="M57 528l25 129h113q6 76 24 148h-108l24 131h127q102 236 314 385t456 149q61 0 120.5 -8t88.5 -16l29 -8l-82 -176q-72 20 -158 20q-168 0 -315.5 -95t-229.5 -251h578l-51 -131h-580q-23 -76 -29 -148h551l-49 -129h-489q18 -160 121.5 -260t281.5 -100q47 0 95.5 6 t72.5 14l25 7l4 -189q-92 -31 -207 -31q-258 0 -424 152t-186 401h-142z" />
<glyph unicode="&#x2122;" horiz-adv-x="2041" d="M176 1309v137h778v-137h-311v-764h-156v764h-311zM1020 545l72 901h141l213 -471l29 -86h4q12 49 26 86l213 471h144l69 -901h-153l-43 538l2 62h-4l-195 -434h-125l-194 434h-5l3 -62l-43 -538h-154z" />
<glyph unicode="&#xe000;" horiz-adv-x="1035" d="M0 1035h1035v-1035h-1035v1035z" />
<glyph unicode="&#xfb01;" horiz-adv-x="1193" d="M92 0l170 874h-129l31 162h129l8 39q18 96 60 169t89.5 112t107.5 63.5t104.5 30.5t87.5 6l90 -6l-37 -170q-16 4 -47 4q-217 0 -258 -217l-6 -31h630l-202 -1036h-199l170 874h-430l-170 -874h-199zM961 1243l38 203h205l-41 -203h-202z" />
<glyph unicode="&#xfb02;" horiz-adv-x="1226" d="M92 0l168 864h-129l31 162h129l10 49q18 96 60 169t89.5 112t107.5 63.5t104.5 30.5t87.5 6l90 -6l-37 -170q-16 4 -47 4q-217 0 -258 -217l-9 -41h244l-31 -162h-243l-168 -864h-199zM758 209q0 33 10 88l223 1149h199l-215 -1114q-10 -47 -10 -78q0 -84 92 -84l33 2 l-37 -176q-29 -4 -60 -4q-98 0 -166.5 49t-68.5 168z" />
<glyph unicode="&#xfb03;" horiz-adv-x="1880" d="M92 0l170 874h-129l31 162h129l8 39q18 96 60 169t89.5 112t107.5 63.5t104.5 30.5t87.5 6l90 -6l-37 -170q-16 4 -47 4q-217 0 -258 -217l-6 -31h487l8 39q18 96 60.5 169t89.5 112t107.5 63.5t104.5 30.5t87 6l90 -6l-37 -170q-16 4 -47 4q-217 0 -258 -217l-6 -31h630 l-202 -1036h-199l170 874h-430l-170 -874h-199l170 874h-487l-170 -874h-199zM1647 1243l39 203h204l-41 -203h-202z" />
<glyph unicode="&#xfb04;" horiz-adv-x="1912" d="M92 0l170 874h-129l31 162h129l8 39q18 96 60 169t89.5 112t107.5 63.5t104.5 30.5t87.5 6l90 -6l-37 -170q-16 4 -47 4q-217 0 -258 -217l-6 -31h487l8 39q18 96 60.5 169t89.5 112t107.5 63.5t104.5 30.5t87 6l90 -6l-37 -170q-16 4 -47 4q-217 0 -258 -217l-6 -31h243 l-30 -162h-244l-170 -874h-199l170 874h-487l-170 -874h-199zM1444 209q0 33 10 88l223 1149h199l-215 -1114q-10 -47 -10 -78q0 -84 92 -84l33 2l-37 -176q-29 -4 -60 -4q-98 0 -166.5 49t-68.5 168z" />
</font>
</defs>
</svg>
