<?xml version="1.0" standalone="no"?>
<!DOCTYPE svg PUBLIC "-//W3C//DTD SVG 1.1//EN" "http://www.w3.org/Graphics/SVG/1.1/DTD/svg11.dtd" >
<svg xmlns="http://www.w3.org/2000/svg">
<metadata>
This is a custom SVG webfont generated by Font Squirrel.
Copyright   : Copyright c 2009 by Jos Buivenga All rights reserved TKrip
Designer    : Jos Buivenga
Foundry     : Jos Buivenga
Foundry URL : httpwwwexljbriscom
</metadata>
<defs>
<font id="MuseoSlab700" horiz-adv-x="1157" >
<font-face units-per-em="2048" ascent="1536" descent="-512" />
<missing-glyph horiz-adv-x="512" />
<glyph unicode=" "  horiz-adv-x="512" />
<glyph unicode="&#x09;" horiz-adv-x="512" />
<glyph unicode="&#xa0;" horiz-adv-x="512" />
<glyph unicode="!" horiz-adv-x="544" d="M137 1454h271l-23 -1034h-227zM147 0v244h252v-244h-252z" />
<glyph unicode="&#x22;" horiz-adv-x="757" d="M119 1024v457h192v-457h-192zM446 1024v457h193v-457h-193z" />
<glyph unicode="#" horiz-adv-x="1456" d="M78 383l31 186h243l51 287h-241l33 188h241l72 410h207l-72 -410h281l71 410h209l-71 -410h245l-30 -188h-246l-51 -287h243l-30 -186h-246l-66 -383h-209l66 383h-279l-67 -383h-207l66 383h-244zM561 569h281l51 287h-281z" />
<glyph unicode="$" horiz-adv-x="1138" d="M78 205l139 186q70 -53 109 -76q131 -78 252 -77q92 0 154.5 47t62.5 129q0 57 -51.5 101t-128 71.5t-166 67.5t-166 83t-128 124t-51.5 186q0 147 105.5 254.5t277.5 136.5v223h177v-219q143 -12 270 -82q55 -33 90 -68l-109 -200q-39 33 -96 63q-119 61 -223 62 q-102 0 -164.5 -44.5t-62.5 -121.5q0 -59 51 -106.5t128 -75t166 -65.5t165.5 -80t128 -119t51.5 -177q0 -158 -105.5 -274.5t-289.5 -141.5v-219h-177v219q-170 20 -303 109q-63 41 -106 84z" />
<glyph unicode="%" horiz-adv-x="1619" d="M80 1155q0 133 97 228.5t237 95.5q137 0 235.5 -95.5t98.5 -228.5q0 -135 -97.5 -229.5t-236.5 -94.5q-141 0 -237.5 94.5t-96.5 229.5zM131 0l1116 1454h240l-1116 -1454h-240zM279 1155q0 -57 38.5 -96t96 -39t97.5 39t40 96q0 55 -40 95t-97.5 40t-96 -40t-38.5 -95z M874 297q0 133 97.5 228.5t236.5 95.5q137 0 235.5 -95.5t98.5 -228.5t-97 -227.5t-237 -94.5q-141 0 -237.5 93.5t-96.5 228.5zM1073 299q0 -57 39 -96t96.5 -39t97.5 39t40 96q0 55 -40 95t-97.5 40t-96.5 -40t-39 -95z" />
<glyph unicode="&#x26;" horiz-adv-x="1400" d="M88 410q0 125 69.5 224t188.5 140v4q-55 25 -98 68q-98 98 -98 250q0 184 135 283.5t342 99.5q55 0 133 -13l59 -12l-61 -209l-31 6q-27 6 -68 6q-106 0 -174.5 -51t-68.5 -141q0 -82 52 -142.5t171 -60.5h272v197h258v-197h189v-213h-189v-180q0 -223 -145 -358.5 t-395 -135.5q-240 0 -390.5 124.5t-150.5 310.5zM356 432q0 -100 74 -160.5t201 -60.5q131 0 205.5 69.5t74.5 202.5v166h-288q-125 0 -196 -56.5t-71 -160.5z" />
<glyph unicode="'" horiz-adv-x="434" d="M119 1024v457h196v-457h-196z" />
<glyph unicode="(" horiz-adv-x="671" d="M127 702q0 428 244 816h219q-231 -393 -232 -818q0 -471 232 -895h-219q-244 393 -244 897z" />
<glyph unicode=")" horiz-adv-x="673" d="M82 -195q231 424 231 895q0 434 -231 818h221q244 -387 244 -816q0 -504 -244 -897h-221z" />
<glyph unicode="*" horiz-adv-x="989" d="M78 1065l69 221l248 -100l-18 268h235l-20 -268l250 100l71 -219l-260 -66v-4l172 -202l-186 -138l-141 226h-4l-142 -226l-188 136l172 204v4z" />
<glyph unicode="+" horiz-adv-x="1267" d="M86 483v203h442v485h211v-485h443v-203h-443v-483h-211v483h-442z" />
<glyph unicode="," horiz-adv-x="559" d="M31 -244l147 508h258l-207 -508h-198z" />
<glyph unicode="-" horiz-adv-x="952" d="M168 471v227h616v-227h-616z" />
<glyph unicode="." horiz-adv-x="546" d="M143 0v262h260v-262h-260z" />
<glyph unicode="/" horiz-adv-x="897" d="M76 -86l522 1614h223l-522 -1614h-223z" />
<glyph unicode="0" horiz-adv-x="1275" d="M111 729q0 750 528 750q526 0 526 -750q0 -164 -27.5 -295t-86 -237.5t-164 -164t-248.5 -57.5q-117 0 -208 39t-150.5 105.5t-98.5 164t-55 206t-16 239.5zM383 729q0 -518 256 -518t256 518q0 514 -256 514t-256 -514z" />
<glyph unicode="1" horiz-adv-x="1034" d="M82 1104l364 350h232v-1239h313v-215h-889v215h318v819q0 12 1 36t1 32v31h-4l-15 -23q-27 -37 -49 -59l-116 -111z" />
<glyph unicode="2" horiz-adv-x="1216" d="M90 129q0 106 39 198.5t99.5 157t135 122t149.5 106.5t135.5 97t99 105.5t38.5 120.5q0 100 -62 153.5t-159 53.5q-111 0 -200 -90q-41 -39 -74 -92l-185 127q45 82 111 145q158 145 371 146q201 0 338 -117t137 -313q0 -106 -50 -197.5t-125 -153t-163 -123.5l-164 -110 q-76 -49 -127 -114.5t-53 -135.5h502v184h229v-399h-1008q-14 82 -14 129z" />
<glyph unicode="3" horiz-adv-x="1187" d="M80 170l131 188q37 -37 94 -73q113 -74 240 -74q115 0 188.5 65.5t73.5 165.5q0 106 -79 168t-206 62q-18 0 -45.5 -2t-34.5 -2l-59 129l315 385q23 25 41 41l21 18v4q-18 0 -29 -2q-33 -4 -53 -4h-320v-172h-229v387h918v-186l-342 -406q154 -23 264 -128t110 -281 q0 -197 -139 -337.5t-379 -140.5q-193 0 -356 99q-74 45 -125 96z" />
<glyph unicode="4" horiz-adv-x="1257" d="M49 375v162l629 917h313v-872h187v-207h-187v-375h-262v375h-680zM324 582h405v485q0 45 6 82l6 43h-6l-16 -37q-12 -27 -41 -74l-354 -495v-4z" />
<glyph unicode="5" horiz-adv-x="1175" d="M78 162l127 190q37 -39 88 -69q119 -72 235 -72q121 0 204 71.5t83 180.5q0 113 -78 182.5t-217 69.5q-90 0 -172 -33q-39 -16 -63 -33l-148 56l68 749h790v-387h-229v172h-332l-28 -285q0 -10 -5 -39l-4 -18h4q8 4 45 16q61 16 132 17q229 0 368 -132t139 -329 q0 -211 -152.5 -352.5t-387.5 -141.5q-186 0 -346 95q-66 37 -121 92z" />
<glyph unicode="6" horiz-adv-x="1239" d="M102 655q0 156 43 300.5t124 262t214 189.5t299 72q115 0 211 -31q47 -14 80 -31l-76 -221q-29 16 -59 25q-61 23 -147 22q-160 0 -259.5 -113.5t-132.5 -283.5h4q41 47 120 74.5t167 27.5q207 0 338 -141t131 -340q0 -205 -141 -348.5t-354 -143.5q-242 0 -402 184.5 t-160 495.5zM377 549q0 -121 84 -229.5t201 -108.5q104 0 164.5 70.5t60.5 187.5q0 115 -73 189.5t-212 74.5q-98 0 -161.5 -51t-63.5 -133z" />
<glyph unicode="7" horiz-adv-x="1128" d="M76 1067v387h1018v-184l-637 -1270h-275l580 1161q23 43 35 60l14 20v4q-16 0 -27 -2q-33 -4 -67 -4h-414v-172h-227z" />
<glyph unicode="8" horiz-adv-x="1241" d="M100 412q0 76 27 144.5t70 116.5t72.5 75.5t56.5 44.5q-168 123 -168 290q0 162 120.5 279t344.5 117q211 0 345 -107.5t134 -286.5q0 -84 -37 -170t-67.5 -125.5t-59.5 -68.5q199 -125 199 -315q0 -174 -140.5 -302.5t-373.5 -128.5q-231 0 -377 127.5t-146 309.5z M365 440q0 -102 74.5 -168.5t183.5 -66.5q102 0 173.5 58.5t71.5 146.5q0 29 -8 53t-29.5 45.5t-39 37t-58.5 37t-64 31.5l-81 35l-84 37q-139 -117 -139 -246zM418 1079q0 -27 8 -50t18.5 -40.5t33 -37t38.5 -31t51 -28.5l55 -26l62 -26l64 -27q98 113 98 242 q0 92 -59.5 143t-161.5 51q-100 0 -153.5 -47t-53.5 -123z" />
<glyph unicode="9" horiz-adv-x="1239" d="M80 987q0 205 141 348.5t354 143.5q242 0 402 -184.5t160 -495.5q0 -154 -42 -297.5t-123 -262t-215 -191.5t-302 -73q-115 0 -211 31q-41 14 -82 31l76 221q33 -14 61 -22q68 -25 147 -25q164 0 263.5 114.5t130.5 284.5h-4q-41 -45 -120 -72.5t-167 -27.5 q-207 0 -338 140t-131 337zM352 987q0 -113 72 -186.5t205 -73.5q98 0 165.5 52t67.5 134q0 123 -86 226.5t-201 103.5q-100 0 -161.5 -72.5t-61.5 -183.5z" />
<glyph unicode=":" horiz-adv-x="612" d="M176 0v262h260v-262h-260zM176 780v264h260v-264h-260z" />
<glyph unicode=";" horiz-adv-x="616" d="M63 -244l127 508h261l-189 -508h-199zM193 780v264h253v-264h-253z" />
<glyph unicode="&#x3c;" horiz-adv-x="1267" d="M109 502v168l985 438v-227l-711 -293v-4l711 -293v-228z" />
<glyph unicode="=" horiz-adv-x="1267" d="M133 274v201h1000v-201h-1000zM133 694v201h1000v-201h-1000z" />
<glyph unicode="&#x3e;" horiz-adv-x="1267" d="M172 63v228l711 293v4l-711 293v227l985 -438v-168z" />
<glyph unicode="?" horiz-adv-x="989" d="M63 1335q51 43 103 74q125 74 283 74q180 0 314 -106.5t134 -278.5q0 -94 -37 -170t-90 -125l-105 -93q-52 -44 -89 -97.5t-37 -112.5v-80h-250v98q0 82 34.5 149.5t84.5 113.5l98 89q49 43 84 94.5t35 108.5q0 72 -57.5 121t-141.5 49q-78 0 -152 -43l-65 -43zM287 0 v244h252v-244h-252z" />
<glyph unicode="@" horiz-adv-x="1648" d="M76 493.5q0 323.5 224 542.5t574 219q266 0 401.5 -127t135.5 -319v-512h148v-186h-566q-199 0 -319.5 112.5t-120.5 268t120 265t320 109.5h172q0 78 -88 129.5t-213 51.5q-229 0 -379.5 -164t-150.5 -396q0 -225 153.5 -384.5t401.5 -159.5v-203q-360 0 -586.5 215 t-226.5 538.5zM811 494q0 -82 55.5 -139.5t143.5 -57.5h155v401h-151q-92 0 -147.5 -58t-55.5 -146z" />
<glyph unicode="A" horiz-adv-x="1492" d="M25 0v201h133l436 1253h305l436 -1253h133v-201h-546v201h143l-90 272h-459l-90 -272h143v-201h-544zM578 682h335l-137 412l-22 90q-4 29 -4 37h-7l-6 -37l-8 -40q-6 -30 -12 -50z" />
<glyph unicode="B" horiz-adv-x="1411" d="M102 0v201h174v1050h-174v203h668q164 0 260 -39q100 -39 160.5 -127t60.5 -209q0 -219 -178 -311v-4q117 -35 176.5 -129t59.5 -215q0 -145 -82 -251t-207 -144q-78 -25 -217 -25h-701zM545 860h256q84 0 131 52.5t47 138.5q0 121 -84 166q-49 23 -125 22h-225v-379z M545 215h270q70 0 105 16q55 23 85.5 79.5t30.5 125.5q0 94 -56 152.5t-155 58.5h-280v-432z" />
<glyph unicode="C" horiz-adv-x="1525" d="M88 733.5q0 321.5 216 533.5t534 212q76 0 165 -14.5t183 -44t156.5 -91t62.5 -141.5v-197h-244v113q0 51 -54 86t-121.5 47t-135.5 12q-211 0 -348 -139t-137 -365q0 -242 141 -391t358 -149q57 0 123 10t129.5 45t63.5 88v113h243v-199q0 -76 -60 -135t-152.5 -90 t-185.5 -46.5t-177 -15.5q-330 0 -545 218.5t-215 540z" />
<glyph unicode="D" horiz-adv-x="1599" d="M102 0v201h174v1050h-174v203h629q195 0 303 -35q217 -61 344 -244.5t127 -447.5q0 -256 -119.5 -435t-330.5 -249q-121 -43 -322 -43h-631zM545 215h176q152 0 237 37q127 51 199 175t72 300q0 182 -75 305t-206 174q-78 33 -227 33h-176v-1024z" />
<glyph unicode="E" horiz-adv-x="1310" d="M102 0v201h174v1050h-174v203h1080v-375h-230v160h-407v-399h479v-215h-479v-410h438v164h229v-379h-1110z" />
<glyph unicode="F" horiz-adv-x="1204" d="M102 0v201h174v1050h-174v203h1039v-377h-230v150h-366v-418h473v-215h-473v-393h192v-201h-635z" />
<glyph unicode="G" horiz-adv-x="1572" d="M88 733q0 326 215 536t553 210q135 0 263 -32t217 -99.5t89 -155.5v-201h-243v107q0 72 -93.5 111.5t-220.5 39.5q-231 0 -366 -137t-135 -369q0 -238 138 -388t376 -150q119 0 226 35.5t107 115.5v156h-264v201h508v-439q0 -78 -62.5 -139t-159.5 -94t-195.5 -49.5 t-186.5 -16.5q-334 0 -550 215t-216 543z" />
<glyph unicode="H" horiz-adv-x="1751" d="M102 0v201h174v1050h-174v203h619v-203h-176v-420h661v420h-176v203h619v-203h-174v-1050h174v-201h-619v201h176v415h-661v-415h176v-201h-619z" />
<glyph unicode="I" horiz-adv-x="825" d="M102 0v201h174v1050h-174v203h619v-203h-176v-1050h176v-201h-619z" />
<glyph unicode="J" horiz-adv-x="1159" d="M41 414v100h258v-78q0 -98 44 -161.5t140 -63.5q80 0 129.5 55.5t49.5 169.5v815h-201v203h622v-203h-153v-825q0 -219 -133 -335t-315.5 -116t-311.5 111t-129 328z" />
<glyph unicode="K" horiz-adv-x="1462" d="M102 0v201h174v1050h-174v203h582v-203h-139v-395h162l276 395h-125v203h533v-203h-131l-351 -481v-4q20 -12 31 -23q35 -31 64 -86l223 -405q27 -51 96 -51h68v-201h-187q-86 0 -128 24.5t-77 84.5l-254 479q-31 53 -108 53h-92v-440h168v-201h-611z" />
<glyph unicode="L" horiz-adv-x="1257" d="M104 0v201h175v1038h-175v215h619v-215h-176v-1024h430v225h229v-440h-1102z" />
<glyph unicode="M" horiz-adv-x="1986" d="M78 0v201h172l86 1050h-176v203h473l323 -821q8 -18 27 -88l8 -33h4l9 33q14 55 28 88l322 821h473v-203h-174l84 -1050h172v-201h-596v201h162l-54 733q-2 29 2 86l4 49h-6q-2 -18 -10 -45q-13 -55 -25 -84l-278 -670h-229l-279 670q-10 31 -22 84q-8 27 -11 45h-8 l4 -49q4 -57 2 -86l-53 -733h164v-201h-598z" />
<glyph unicode="N" horiz-adv-x="1734" d="M102 0v201h174v1050h-174v203h443l612 -936q10 -16 37 -80l16 -43h7l-5 49q-4 61 -4 88v719h-180v203h623v-203h-174v-1251h-269l-612 932q-12 23 -37 80l-16 43h-8l6 -47q6 -70 4 -88v-719h180v-201h-623z" />
<glyph unicode="O" horiz-adv-x="1679" d="M86 737q0 313 216 527.5t537.5 214.5t537.5 -214t216 -528q0 -322 -216 -542t-537.5 -220t-537.5 220t-216 542zM362 737q0 -223 139.5 -374.5t338 -151.5t338 151.5t139.5 374.5q0 213 -139.5 359.5t-338 146.5t-338 -146.5t-139.5 -359.5z" />
<glyph unicode="P" horiz-adv-x="1357" d="M102 201h174v1050h-174v203h697q160 0 245 -37q119 -49 190 -163.5t71 -266.5q0 -156 -75 -276.5t-202 -165.5q-86 -29 -223 -29h-260v-315h176v-201h-619v201zM545 731h225q86 0 148 29q119 57 118 227q0 156 -106 217q-59 35 -158 35h-227v-508z" />
<glyph unicode="Q" horiz-adv-x="1689" d="M88 733.5q0 317.5 215 531.5t541 214q322 0 538.5 -207t216.5 -522q0 -264 -165 -474l165 -149l-151 -168l-164 162q-186 -145 -440 -146q-324 0 -540 220.5t-216 538zM365 733q0 -221 138 -371.5t341 -150.5q150 0 256 82l-205 196l147 164l205 -202q82 133 82 286 q0 213 -140 359.5t-345 146.5q-203 0 -341 -145.5t-138 -364.5z" />
<glyph unicode="R" horiz-adv-x="1468" d="M102 0v201h174v1050h-174v203h641q174 0 277 -31q127 -43 197.5 -141t70.5 -248q0 -152 -72.5 -256t-201.5 -147v-4l24 -19q35 -35 47 -57l168 -303q27 -47 99 -47h47v-201h-170q-88 0 -128 22.5t-75 86.5l-207 374q-25 43 -52.5 58.5t-88.5 15.5h-133v-356h168v-201 h-611zM545 772h241q109 0 171.5 62.5t62.5 177.5q0 154 -115 200q-55 27 -164 27h-196v-467z" />
<glyph unicode="S" horiz-adv-x="1218" d="M98 303v166h244v-109q0 -68 75 -108.5t181 -40.5q113 0 182.5 47t69.5 133q0 25 -5 45.5t-19 38.5l-24 33q-11 14 -37 31l-39 24q-13 8 -49 24l-50 21q-14 6 -56.5 22.5t-54.5 20.5q-92 35 -145.5 62.5t-117 77t-93 119t-29.5 163.5q0 205 139.5 305.5t347.5 100.5 q186 0 323.5 -68t137.5 -188v-191h-243v98q0 53 -64.5 83t-153.5 30q-94 0 -155.5 -40t-61.5 -120q0 -59 39 -103t85 -66.5t130 -55.5q23 -8 33 -12q80 -27 131 -48.5t114.5 -59.5t100.5 -80t62.5 -106.5t25.5 -141.5q0 -211 -151.5 -323t-372.5 -112q-199 0 -349.5 87 t-150.5 241z" />
<glyph unicode="T" horiz-adv-x="1384" d="M55 1020v434h1274v-434h-227v219h-277v-1038h176v-201h-618v201h174v1038h-274v-219h-228z" />
<glyph unicode="U" horiz-adv-x="1656" d="M63 1251v203h619v-203h-176v-704q0 -125 49 -207q80 -129 274 -129q190 0 273 131q49 84 49 207v702h-174v203h616v-203h-174v-704q0 -219 -106 -365q-158 -207 -483.5 -207t-483.5 205q-109 137 -108 367v704h-175z" />
<glyph unicode="V" horiz-adv-x="1472" d="M20 1251v203h568v-203h-154l273 -829q6 -18 11 -49t7 -39l6 -43h8l6 43q2 4 8.5 36.5t12.5 51.5l270 829h-151v203h567v-203h-135l-443 -1251h-278l-442 1251h-134z" />
<glyph unicode="W" horiz-adv-x="2082" d="M29 1251v203h567v-203h-170l188 -829q8 -43 13 -86l4 -41h8l6 41q2 10 7 40t10 46l272 1032h215l272 -1032l11 -46l8 -40q4 -29 4 -41h8l4 41q4 43 12 86l189 829h-170v203h567v-203h-133l-309 -1251h-301l-244 918q-4 16 -9 46.5t-7 41.5l-7 45h-6q0 -16 -4 -45 q-6 -45 -18 -88l-244 -918h-301l-309 1251h-133z" />
<glyph unicode="X" horiz-adv-x="1417" d="M66 0v201h129l366 536l-356 514h-129v203h549v-203h-144l201 -301q23 -25 31 -43q8 -12 10 -18h4l4 8l14 23q10 16 21 30l195 301h-140v203h529v-203h-127l-369 -534l363 -516h129v-201h-551v201h143l-203 305q-25 33 -30 45q-8 12 -11 18h-4q-2 0 -7 -8t-14 -24l-18 -31 l-194 -305h141v-201h-532z" />
<glyph unicode="Y" horiz-adv-x="1347" d="M20 1251v203h541v-203h-141l221 -381q10 -16 23 -45q2 -4 8 -20h4q6 16 8 20q8 18 25 45l221 381h-139v203h536v-203h-131l-387 -643v-407h174v-201h-618v201h176v407l-387 643h-134z" />
<glyph unicode="Z" horiz-adv-x="1316" d="M106 170l699 1001q27 37 41 52l20 18v4q-16 0 -26 -2q-33 -4 -58 -4h-438v-219h-227v434h1073v-168l-698 -1003q-16 -25 -41 -50l-21 -20v-4l27 4q16 2 57 2h469v225h229v-440h-1106v170z" />
<glyph unicode="[" horiz-adv-x="675" d="M186 -195v1713h404v-189h-182v-1335h182v-189h-404z" />
<glyph unicode="\" horiz-adv-x="894" d="M76 1528h221l522 -1614h-221z" />
<glyph unicode="]" horiz-adv-x="675" d="M86 -6h182v1335h-182v189h403v-1713h-403v189z" />
<glyph unicode="^" horiz-adv-x="1267" d="M133 502l412 952h164l411 -952h-225l-268 678l-269 -678h-225z" />
<glyph unicode="_" horiz-adv-x="1165" d="M8 0h1149v-201h-1149v201z" />
<glyph unicode="`" horiz-adv-x="1009" d="M248 1829h280l224 -279h-228z" />
<glyph unicode="a" d="M57 293q0 90 46.5 158.5t111 104.5t152.5 57.5t151.5 26.5t126.5 5h66v35q0 180 -193 180q-94 0 -205 -49q-43 -18 -90 -51l-96 180q53 41 113 66q139 63 301 63q211 0 320.5 -105.5t109.5 -306.5v-417q0 -45 45 -45h94v-195h-246q-68 0 -100.5 30.5t-32.5 80.5v12 q0 18 4 39q2 6 2 14h-4q-27 -53 -74 -100q-109 -100 -256 -101q-145 0 -245.5 83t-100.5 235zM319 313q0 -61 41 -102t111 -41q100 0 171 89t71 194v34h-43q-51 0 -100.5 -6t-112 -21.5t-100.5 -53.5t-38 -93z" />
<glyph unicode="b" horiz-adv-x="1273" d="M2 1260v194h420v-453q0 -47 -2 -63q-2 -10 -2 -25h4q29 45 74 78q102 78 239 78q211 0 338 -151.5t127 -395.5q0 -246 -135 -396.5t-346 -150.5q-141 0 -242 84q-43 37 -69 82h-5q0 -14 3 -22q2 -14 2 -56v-63h-246v1260h-160zM416 516q0 -131 67.5 -226t190.5 -95 q111 0 187.5 87t76.5 236.5t-71.5 238.5t-188.5 89q-111 0 -186.5 -84t-75.5 -246z" />
<glyph unicode="c" horiz-adv-x="1142" d="M70 520q0 233 160.5 391t400.5 158q96 0 188 -22.5t166 -82t74 -145.5v-143h-225v69q0 49 -59.5 76t-135.5 27q-141 0 -224 -88t-83 -234q0 -156 94 -243.5t233 -87.5q164 0 326 127l92 -185q-66 -61 -181.5 -111.5t-250.5 -50.5q-238 0 -406.5 150.5t-168.5 394.5z" />
<glyph unicode="d" horiz-adv-x="1312" d="M74 522q0 248 132 397.5t345 149.5q143 0 233 -74q39 -33 68 -73h4q0 14 -2 20q-2 14 -2 53v265h-162v194h420v-1214q0 -45 45 -45h94v-195h-245q-68 0 -101 30.5t-33 80.5v12q0 14 4 35q2 6 3 12h-5q-29 -53 -73 -96q-111 -98 -269 -99q-207 0 -331.5 151.5 t-124.5 395.5zM336 522q0 -147 71.5 -237t186.5 -90q113 0 188.5 81.5t75.5 239.5q0 137 -66.5 233.5t-189.5 96.5q-115 0 -190.5 -87t-75.5 -237z" />
<glyph unicode="e" horiz-adv-x="1142" d="M72 522q0 242 147.5 394.5t382.5 152.5q219 0 342 -140.5t123 -355.5q0 -37 -2 -55l-4 -33h-723q12 -137 100 -213.5t213 -76.5q115 0 215 55q47 23 88 55l101 -184q-37 -33 -113 -72q-139 -74 -309 -74q-252 0 -406.5 159t-154.5 388zM344 639h455q-4 106 -60.5 167.5 t-142.5 61.5q-98 0 -166 -62.5t-86 -166.5z" />
<glyph unicode="f" horiz-adv-x="800" d="M84 850v194h162v48q0 96 29.5 167.5t73.5 111.5t103.5 63.5t106.5 31t96 7.5q39 0 76 -5l31 -4v-209l-21 5q-14 2 -59 2q-176 0 -176 -164v-54h235v-194h-235v-655h176v-195h-588v195h152v655h-162z" />
<glyph unicode="g" horiz-adv-x="1302" d="M76 549q0 225 121.5 372.5t341.5 147.5q100 0 192 -41t131 -117h4q0 6 -2 10.5t-2 24.5q0 43 30 70.5t89 27.5h260v-194h-100q-45 0 -45 -41v-746q0 -129 -47.5 -227t-128 -154.5t-175 -84t-200.5 -27.5q-203 0 -373 90l80 193q41 -20 84 -35q104 -35 205 -35 q131 0 213 63.5t82 198.5v66q0 27 2 36q2 6 2 19h-4q-100 -145 -291 -146q-217 0 -343 152t-126 377zM338 557q0 -141 68.5 -229t193.5 -88q104 0 173 71.5t69 235.5q0 301 -258 301q-117 0 -181.5 -78t-64.5 -213z" />
<glyph unicode="h" horiz-adv-x="1390" d="M49 1260v194h422v-508q0 -47 -2 -63l-4 -25h4q41 84 138.5 147.5t221.5 63.5q365 0 365 -397v-477h152v-195h-412v618q0 104 -36 158.5t-128 54.5q-135 0 -217 -101t-82 -251v-284h150v-195h-562v195h152v1065h-162z" />
<glyph unicode="i" horiz-adv-x="716" d="M84 850v194h422v-849h149v-195h-561v195h152v655h-162zM244 1223v231h262v-231h-262z" />
<glyph unicode="j" horiz-adv-x="643" d="M-33 -418v207q6 0 12.5 -2t32.5 -2q33 0 65 7t66.5 26.5t56 62.5t21.5 105v864h-162v194h422v-1069q0 -100 -32.5 -175.5t-79.5 -116.5t-110.5 -67t-113 -33t-100.5 -7q-43 0 -57 2zM221 1223v231h262v-231h-262z" />
<glyph unicode="k" horiz-adv-x="1243" d="M49 1260v194h422v-805h137l170 201h-121v194h502v-194h-135l-227 -268v-4q2 0 12 -6.5t29.5 -28t38.5 -54.5l147 -258q23 -37 86 -36h59v-195h-194q-68 0 -100.5 17.5t-63.5 72.5l-188 330q-23 39 -91 39h-61v-264h113v-195h-525v195h152v1065h-162z" />
<glyph unicode="l" horiz-adv-x="630" d="M-8 1260v194h420v-1106q0 -78 21.5 -110.5t84.5 -32.5q8 0 19.5 1t15.5 1h14v-209l-28 -4q-16 -2 -66 -2q-145 0 -232 72.5t-87 267.5v928h-162z" />
<glyph unicode="m" horiz-adv-x="2041" d="M84 850v194h272q137 0 138 -116v-47q0 -23 -2 -31q-2 -6 -3 -14h5q45 92 142 162.5t214 70.5q233 0 291 -227h4q47 96 145.5 161.5t216.5 65.5q336 0 336 -397v-477h152v-195h-412v623q0 102 -29.5 155t-113.5 53q-127 0 -196.5 -107.5t-69.5 -262.5v-266h151v-195h-410 v623q0 100 -28.5 154t-112.5 54q-129 0 -198.5 -113.5t-69.5 -268.5v-254h149v-195h-561v195h152v612q0 43 -45 43h-117z" />
<glyph unicode="n" horiz-adv-x="1427" d="M84 850v194h274q135 0 136 -116v-47q0 -23 -2 -31q-2 -6 -3 -14h5q6 18 29.5 51t67.5 77t120.5 74.5t167.5 30.5q350 0 350 -397v-477h151v-195h-409v618q0 104 -37 158.5t-129 54.5q-135 0 -217 -108.5t-82 -253.5v-274h149v-195h-561v195h152v610q0 45 -45 45h-117z " />
<glyph unicode="o" horiz-adv-x="1288" d="M70 522.5q0 237.5 165.5 392t407.5 154.5t409 -154.5t167 -392t-166 -392.5t-408 -155q-244 0 -409.5 155t-165.5 392.5zM334 522q0 -143 90 -234t221 -91t220 91t89 234q0 141 -90 233.5t-219 92.5t-220 -92.5t-91 -233.5z" />
<glyph unicode="p" horiz-adv-x="1331" d="M59 850v194h269q129 0 129 -98v-6v-33q0 -10 -2 -14h4q25 43 76 88q102 88 260 88q211 0 336.5 -151.5t125.5 -395.5q0 -246 -134 -396.5t-343 -150.5q-135 0 -227 74q-43 33 -74 74h-4l4 -25q2 -16 2 -65v-248h152v-195h-563v195h151v1020q0 45 -45 45h-117zM473 516 q0 -131 68.5 -226t191.5 -95q113 0 187.5 87t74.5 236.5t-71.5 238.5t-188.5 89q-111 0 -186.5 -84t-75.5 -246z" />
<glyph unicode="q" horiz-adv-x="1271" d="M74 522q0 246 132 396.5t341 150.5q115 0 194.5 -49t124.5 -111h4q0 12 -2 19q-2 14 -2 49v67h244v-1259h152v-195h-562v195h152v258q0 49 2 66q2 10 2 24h-4q-29 -45 -74 -78q-104 -80 -239 -80q-211 0 -338 151.5t-127 395.5zM336 522.5q0 -149.5 71.5 -238.5 t188.5 -89q111 0 186.5 83.5t75.5 245.5q0 131 -67.5 226.5t-192.5 95.5q-111 0 -186.5 -87t-75.5 -236.5z" />
<glyph unicode="r" horiz-adv-x="911" d="M84 850v194h272q139 0 140 -126v-62q0 -33 -2 -47q-2 -6 -2 -18h4q39 117 127 192.5t204 75.5q25 0 33 -2q6 -2 14 -2v-256q-12 0 -18 2q-14 2 -45 2q-150 0 -227.5 -110.5t-77.5 -270.5v-227h149v-195h-561v195h152v610q0 45 -45 45h-117z" />
<glyph unicode="s" horiz-adv-x="1009" d="M72 348h221v-61q0 -51 59.5 -80t145.5 -29q82 0 130 27.5t48 79.5q0 80 -205 149q-20 8 -33 12l-94 37.5t-86 43t-78.5 59t-49 79t-21.5 105.5q0 152 123.5 225.5t287.5 73.5q137 0 257 -55.5t120 -161.5v-133h-223v59q0 41 -42 63.5t-112 22.5q-66 0 -108.5 -23.5 t-42.5 -70.5q0 -59 56 -92t163 -64q76 -23 125 -43t106.5 -57t87 -92t29.5 -129q0 -154 -125 -236t-315 -82q-100 0 -193.5 27t-162 86t-68.5 139v121z" />
<glyph unicode="t" horiz-adv-x="780" d="M41 850v194h168v285h252v-285h237v-194h-237v-440q0 -63 21.5 -107.5t56 -63t65.5 -25.5t66 -7q8 0 19 1t16 1h12v-213l-23 -4q-14 -2 -57 -2q-53 0 -103.5 7t-114 31.5t-109.5 64.5t-77.5 115t-31.5 175v467h-160z" />
<glyph unicode="u" horiz-adv-x="1386" d="M45 850v194h422v-626q0 -102 36 -156.5t128 -54.5q129 0 209 111.5t80 261.5v270h-160v194h420v-806q0 -45 45 -45h100v-193h-258q-135 0 -135 117v39q0 8 1 19t1 15v15h-4q-6 -20 -29.5 -52t-66.5 -75t-119 -73t-166 -30q-342 0 -342 398v477h-162z" />
<glyph unicode="v" horiz-adv-x="1228" d="M20 850v194h502v-194h-116l180 -516q6 -16 13 -46t7 -32l6 -37h6l7 37q2 8 8 35.5t10 42.5l182 516h-118v194h501v-194h-125l-319 -850h-299l-318 850h-127z" />
<glyph unicode="w" horiz-adv-x="1775" d="M25 1044h501v-194h-125l138 -510q8 -35 12 -76l4 -37h6l4 37q4 41 13 76l196 702h230l194 -702q8 -35 12 -76l4 -37h7l4 37q4 41 12 76l139 510h-127v194h502v-194h-125l-242 -850h-294l-181 612q-12 51 -14 78l-4 37h-6l-4 -37q-4 -45 -15 -78l-178 -612h-295l-241 850 h-127v194z" />
<glyph unicode="x" horiz-adv-x="1191" d="M80 0v195h149l230 337l-215 318h-160v194h322l161 -264l16 -27l11 -22q8 -12 12 -24h4q4 12 13 24l28 49l164 264h299v-194h-145l-215 -311l237 -344h127v-195h-289l-184 293l-29 49q-10 12 -12 25h-4q-2 -8 -10 -25q-10 -23 -29 -51l-180 -291h-301z" />
<glyph unicode="y" horiz-adv-x="1241" d="M20 850v194h515v-194h-123l190 -528q6 -14 11 -42t8 -32q4 -25 4 -35h6l6 35q16 57 22 74l189 528h-121v194h494v-194h-119l-385 -985q-115 -295 -414 -295q-96 0 -184 35q-37 14 -70 37l84 190q23 -16 43 -25q45 -25 115 -24q131 0 184 121l29 65l-359 881h-125z" />
<glyph unicode="z" horiz-adv-x="1101" d="M94 0v166l529 625l41 43l18 16v4q-18 0 -29 -2q-16 -2 -59 -2h-272v-152h-222v346h891v-167l-524 -623l-41 -43l-18 -16v-5q18 0 28 3q16 2 58 2h294v149h224v-344h-918z" />
<glyph unicode="{" horiz-adv-x="729" d="M61 557v227q51 6 89 31q86 61 86 186v177q0 88 27.5 154.5t65.5 102t92 56t94 27t83 6.5h45q12 0 19 -2v-193q-2 2 -11 2h-26q-27 0 -50.5 -6t-52 -22.5t-46 -53.5t-17.5 -92v-223q0 -131 -84 -207q-39 -35 -86 -53v-4q49 -14 86 -49q84 -76 84 -209v-246 q0 -174 166 -174h26q8 0 11 2v-193q-12 0 -19 -2q-14 -2 -45 -2q-43 0 -83 6.5t-94 26.5t-92 56t-65.5 102.5t-27.5 156.5v199q0 123 -86 184q-40 27 -89 29z" />
<glyph unicode="|" horiz-adv-x="587" d="M182 -330v1960h224v-1960h-224z" />
<glyph unicode="}" horiz-adv-x="729" d="M68 -199v193q2 -2 10 -2h26q166 0 166 174v246q0 133 84 209q37 33 84 49v4q-45 18 -84 53q-84 76 -84 207v223q0 55 -17 92t-46 53.5t-52.5 22.5t-50.5 6h-26q-8 0 -10 -2v193q6 2 18 2h45q55 0 107.5 -11.5t115 -44t101.5 -107.5t39 -183v-177q0 -123 88 -186 q37 -25 86 -31v-227q-47 -2 -86 -29q-88 -63 -88 -184v-199q0 -111 -39 -185.5t-101.5 -107t-115 -44t-107.5 -11.5q-31 0 -45 2q-6 2 -18 2z" />
<glyph unicode="~" horiz-adv-x="1263" d="M123 408q0 373 313 372q70 0 127.5 -28.5t89 -64.5t73.5 -64.5t87 -28.5q66 0 97.5 51t31.5 127h205q0 -373 -313 -373q-70 0 -126.5 29t-88 63.5t-74.5 63.5t-88 29q-63 0 -95 -50.5t-32 -125.5h-207z" />
<glyph unicode="&#xa1;" horiz-adv-x="538" d="M135 -410l21 1033h227l20 -1033h-268zM141 799v243h254v-243h-254z" />
<glyph unicode="&#xa2;" d="M74 727q0 221 121.5 383t312.5 195v172h176v-172q135 -25 237.5 -113t153.5 -219l-235 -90q-74 182 -236 182q-119 0 -192.5 -95.5t-73.5 -242.5q0 -156 71.5 -247t194.5 -91q164 0 236 182l235 -90q-51 -125 -151.5 -218t-239.5 -111v-177h-176v177 q-193 33 -313.5 193.5t-120.5 381.5z" />
<glyph unicode="&#xa3;" horiz-adv-x="1273" d="M86 0v207h172v430h-143v178h143v248q0 182 131 299t334 117q139 0 266 -70q49 -27 101 -72l-142 -176q-29 23 -65 41q-74 41 -154 41q-90 0 -146.5 -53t-56.5 -135v-240h348v-178h-348v-422h439v225h229v-440h-1108z" />
<glyph unicode="&#xa5;" horiz-adv-x="1314" d="M76 1454h301l190 -389q27 -61 62 -160l26 -74h4l27 74q20 61 62 160l190 389h301l-315 -594h200v-155h-280l-51 -99v-67h331v-158h-331v-381h-269v381h-334v158h334v67l-53 99h-281v155h201z" />
<glyph unicode="&#xa7;" horiz-adv-x="962" d="M80 -2l110 176q23 -20 66 -45q82 -45 166 -45q92 0 151.5 52t59.5 155q0 49 -19 117l-137 661h203l147 -704q14 -55 15 -117q0 -166 -112 -270.5t-308 -104.5q-133 0 -252 61q-57 31 -90 64zM119 1104q0 166 111.5 270.5t308.5 104.5q137 0 252 -64q49 -27 90 -63 l-117 -166q-27 20 -64 41q-68 39 -159 39q-96 0 -154.5 -47.5t-58.5 -145.5q0 -37 16 -102l141 -688h-202l-150 704q-14 56 -14 117z" />
<glyph unicode="&#xa8;" horiz-adv-x="1009" d="M176 1591v238h213v-238h-213zM621 1591v238h213v-238h-213z" />
<glyph unicode="&#xa9;" horiz-adv-x="1632" d="M82 727q0 313 214 531.5t517 218.5q307 0 522 -218.5t215 -531.5q0 -311 -215 -531.5t-522 -220.5q-303 0 -517 220.5t-214 531.5zM264 727q0 -246 158 -416t391 -170q236 0 396.5 170t160.5 416t-160.5 415t-396.5 169q-233 0 -391 -169t-158 -415zM440 723 q0 166 108.5 282.5t274.5 116.5q160 0 258 -106q45 -45 74 -109l-156 -73q-12 27 -41 59q-59 59 -129 59q-90 0 -145 -65.5t-55 -163.5q0 -100 53 -164.5t147 -64.5q70 0 129 59q29 33 41 59l156 -71q-29 -61 -74 -109q-100 -109 -258 -108q-166 0 -274.5 116.5 t-108.5 282.5z" />
<glyph unicode="&#xaa;" horiz-adv-x="864" d="M135 985q0 225 381 225h16v15q0 106 -116 106q-59 0 -117 -26q-18 -8 -51 -29l-68 121q29 20 70 39q82 39 192 39q133 0 204 -70t71 -197v-411h-170v90h-4q-16 -31 -43 -51q-59 -51 -144 -52q-88 0 -154.5 54.5t-66.5 146.5zM137 545v139h588v-139h-588zM322 997 q0 -31 22.5 -50t58.5 -19q55 0 92 45t37 102v15h-24q-186 -1 -186 -93z" />
<glyph unicode="&#xab;" horiz-adv-x="1222" d="M76 578l336 421h247l-335 -421l335 -420h-247zM537 578l335 421h248l-336 -421l336 -420h-248z" />
<glyph unicode="&#xac;" horiz-adv-x="1214" d="M86 694v201h999v-602h-208v401h-791z" />
<glyph unicode="&#xad;" horiz-adv-x="952" d="M168 471v227h616v-227h-616z" />
<glyph unicode="&#xae;" horiz-adv-x="1632" d="M82 727q0 313 214 531.5t517 218.5q307 0 522 -218.5t215 -531.5q0 -311 -215 -531.5t-522 -220.5q-303 0 -517 220.5t-214 531.5zM264 727q0 -246 158 -416t391 -170q236 0 396.5 170t160.5 416t-160.5 415t-396.5 169q-233 0 -391 -169t-158 -415zM557 356v750h311 q111 0 178.5 -64.5t67.5 -173.5q0 -80 -41 -130t-92 -64v-4l6 -8q8 -8 21 -35l141 -271h-193l-127 277h-98v-277h-174zM731 756h96q51 0 80 29.5t29 83t-28.5 82t-78.5 28.5h-98v-223z" />
<glyph unicode="&#xaf;" horiz-adv-x="1009" d="M238 1604v178h536v-178h-536z" />
<glyph unicode="&#xb0;" horiz-adv-x="823" d="M78 1157q0 133 97 228.5t237 95.5q137 0 236.5 -95.5t99.5 -228.5q0 -135 -98.5 -228t-237.5 -93q-141 0 -237.5 93t-96.5 228zM276 1157q0 -57 39 -96t96.5 -39t97.5 39t40 96q0 55 -40 95t-97.5 40t-96.5 -40t-39 -95z" />
<glyph unicode="&#xb1;" horiz-adv-x="1267" d="M86 483v203h442v485h211v-485h443v-203h-443v-483h-211v483h-442zM115 -174h1040v-201h-1040v201z" />
<glyph unicode="&#xb2;" horiz-adv-x="788" d="M66 956q0 78 31.5 143.5t79.5 106.5t103.5 80t103.5 67.5t80 66.5t32 79q0 47 -36 77t-87 30q-59 0 -119 -47q-16 -14 -45 -48l-129 113q35 47 78 82q100 80 231 80q135 0 219 -74t84 -194q0 -82 -42 -146.5t-103.5 -105.5t-123 -77t-107.5 -78t-50 -89h285v98h156v-254 h-633l-4 33q-4 37 -4 57z" />
<glyph unicode="&#xb3;" horiz-adv-x="784" d="M63 983l101 131q25 -29 51 -47q70 -49 150 -49q61 0 103 37t42 92q0 57 -46 87t-112 30h-65l-39 92l176 215l33 31q10 10 14 12v8l-20 -4q-29 -4 -45 -4h-160v-105h-158v256h598v-125l-209 -241q104 -20 167 -82t63 -166q0 -125 -91.5 -215t-240.5 -90q-133 0 -236 69 q-43 29 -76 68z" />
<glyph unicode="&#xb4;" horiz-adv-x="1009" d="M258 1550l221 279h283l-277 -279h-227z" />
<glyph unicode="&#xb5;" horiz-adv-x="1247" d="M137 -410v1454h260v-618q0 -104 36 -158.5t126 -54.5q135 0 214 102.5t79 249.5v479h258v-1044h-250v127q0 29 2 43q2 6 2 23h-4q-29 -59 -80 -109q-113 -109 -280 -109q-63 0 -113 21q-25 10 -35 22h-4l8 -59q6 -53 6 -111v-258h-225z" />
<glyph unicode="&#x3bc;" horiz-adv-x="1247" d="M137 -410v1454h260v-618q0 -104 36 -158.5t126 -54.5q135 0 214 102.5t79 249.5v479h258v-1044h-250v127q0 29 2 43q2 6 2 23h-4q-29 -59 -80 -109q-113 -109 -280 -109q-63 0 -113 21q-25 10 -35 22h-4l8 -59q6 -53 6 -111v-258h-225z" />
<glyph unicode="&#xb6;" horiz-adv-x="1271" d="M63 975q0 201 141.5 340t340.5 139h624v-227h-434v-1329h-190v596q-199 0 -340.5 140t-141.5 341zM862 -102v1216h189v-1216h-189z" />
<glyph unicode="&#xb7;" horiz-adv-x="577" d="M162 467v262h254v-262h-254z" />
<glyph unicode="&#xb8;" horiz-adv-x="1009" d="M319 -315q4 0 12.5 -3.5t14.5 -5.5q25 -6 68 -6q102 0 102 62q0 63 -119 63h-41l76 260l121 -26v-17l-35 -123q76 -4 125 -48t49 -113q0 -92 -73.5 -138.5t-176.5 -46.5q-53 0 -86 6l-21 6q-13 3 -16 3v127z" />
<glyph unicode="&#xb9;" horiz-adv-x="724" d="M57 1524l254 241h170v-743h207v-156h-608v156h207v430q0 18 4 47q2 6 2 17h-4q-4 -8 -8 -13q-2 -2 -5.5 -6t-8.5 -9t-11 -9l-84 -80z" />
<glyph unicode="&#xba;" horiz-adv-x="952" d="M117 1133q0 147 104.5 244.5t253.5 97.5q154 0 257.5 -96.5t103.5 -246t-103.5 -248t-255.5 -98.5q-150 0 -255 98.5t-105 248.5zM147 545v139h660v-139h-660zM303 1133q0 -80 50 -131.5t124 -51.5t123 51.5t49 131t-49 130t-123 50.5t-124 -51t-50 -129z" />
<glyph unicode="&#xbb;" horiz-adv-x="1220" d="M102 158l336 420l-336 421h248l336 -421l-336 -420h-248zM563 158l336 420l-336 421h246l336 -421l-336 -420h-246z" />
<glyph unicode="&#xbc;" horiz-adv-x="2007" d="M90 1212l254 242h170v-743h207v-156h-608v156h206v430q0 18 5 47q2 6 2 16h-4q-4 -8 -9 -12q-2 -2 -5 -6t-8 -9.5t-11 -9.5l-84 -80zM563 0l688 1454h189l-688 -1454h-189zM1212 209v125l387 565h222v-543h118v-147h-118v-209h-193v209h-416zM1395 356h233v267q0 8 6 63 l4 33h-8q-4 -18 -10 -29q-25 -49 -31 -57l-194 -273v-4z" />
<glyph unicode="&#xbd;" horiz-adv-x="1982" d="M78 1212l254 242h170v-743h207v-156h-609v156h207v430q0 18 4 47q2 6 2 16h-4q-4 -8 -8 -12q-2 -2 -5 -6t-8 -9.5t-12 -9.5l-83 -79zM557 0l688 1454h189l-689 -1454h-188zM1257 90q0 78 32 143.5t80 106.5t103.5 80t103.5 67.5t80 66.5t32 79q0 47 -36 76.5t-87 29.5 q-59 0 -119 -47q-16 -14 -45 -47l-129 113q35 47 78 82q100 80 231 80q135 0 219 -74t84 -195q0 -82 -42 -146.5t-103.5 -105.5t-123 -76.5t-107.5 -77.5t-50 -89h285v98h155v-254h-632l-4 33q-5 37 -5 57z" />
<glyph unicode="&#xbe;" horiz-adv-x="2019" d="M86 672l100 131q25 -29 52 -47q70 -49 149 -49q61 0 103 36.5t42 92.5q0 57 -46 86.5t-111 29.5h-66l-39 92l176 216l33 30q10 10 15 13v8l-21 -4q-29 -4 -45 -4h-160v-105h-157v256h598v-125l-209 -242q104 -20 166.5 -81.5t62.5 -165.5q0 -125 -91 -215t-241 -90 q-133 0 -235 69q-43 29 -76 68zM573 0l689 1454h188l-688 -1454h-189zM1223 209v125l387 565h221v-543h119v-147h-119v-209h-193v209h-415zM1405 356h233v267q0 8 7 63l4 33h-9q-4 -18 -10 -29q-25 -49 -31 -57l-194 -273v-4z" />
<glyph unicode="&#xbf;" horiz-adv-x="987" d="M90 -45q0 92 37 168t90 125l106 94q52 45 89 98.5t37 112.5v72h249v-90q0 -82 -34.5 -151t-83.5 -115l-100 -89q-50 -43 -85 -93t-35 -107q0 -72 58.5 -122.5t142.5 -50.5q78 0 152 43q45 29 65 46l144 -181q-45 -41 -101 -73q-121 -72 -282 -72q-186 0 -317.5 104.5 t-131.5 280.5zM446 801v243h252v-243h-252z" />
<glyph unicode="&#xc0;" horiz-adv-x="1484" d="M20 0v201h134l436 1253h305l436 -1253h133v-201h-546v201h143l-90 272h-459l-90 -272h143v-201h-545zM383 1829h281l223 -279h-228zM573 682h336l-137 412l-22 90q-4 29 -5 37h-6l-6 -37l-8 -40q-6 -30 -12 -50z" />
<glyph unicode="&#xc1;" horiz-adv-x="1492" d="M25 0v201h133l436 1253h305l436 -1253h133v-201h-546v201h143l-90 272h-459l-90 -272h143v-201h-544zM578 682h335l-137 412l-22 90q-4 29 -4 37h-7l-6 -37l-8 -40q-6 -30 -12 -50zM596 1550l221 279h283l-277 -279h-227z" />
<glyph unicode="&#xc2;" horiz-adv-x="1492" d="M25 0v201h133l436 1253h305l436 -1253h133v-201h-546v201h143l-90 272h-459l-90 -272h143v-201h-544zM422 1550l188 279h267l188 -279h-217l-103 166h-4l-102 -166h-217zM578 682h335l-137 412l-22 90q-4 29 -4 37h-7l-6 -37l-8 -40q-6 -30 -12 -50z" />
<glyph unicode="&#xc3;" horiz-adv-x="1492" d="M25 0v201h133l436 1253h305l436 -1253h133v-201h-546v201h143l-90 272h-459l-90 -272h143v-201h-544zM371 1552q0 281 229 281q61 0 108.5 -33t83 -65.5t68.5 -32.5q80 0 80 125h180q0 -281 -231 -281q-61 0 -108.5 33t-83 65.5t-68.5 32.5q-78 0 -78 -125h-180zM578 682 h335l-137 412l-22 90q-4 29 -4 37h-7l-6 -37l-8 -40q-6 -30 -12 -50z" />
<glyph unicode="&#xc4;" horiz-adv-x="1492" d="M25 0v201h133l436 1253h305l436 -1253h133v-201h-546v201h143l-90 272h-459l-90 -272h143v-201h-544zM416 1591v238h213v-238h-213zM578 682h335l-137 412l-22 90q-4 29 -4 37h-7l-6 -37l-8 -40q-6 -30 -12 -50zM860 1591v238h213v-238h-213z" />
<glyph unicode="&#xc5;" horiz-adv-x="1492" d="M25 0v201h133l436 1253h305l436 -1253h133v-201h-546v201h143l-90 272h-459l-90 -272h143v-201h-544zM537 1694q0 82 62.5 129t145.5 47q86 0 148.5 -47t62.5 -129t-62.5 -128t-148.5 -46q-84 0 -146 46t-62 128zM578 682h335l-137 412l-22 90q-4 29 -4 37h-7l-6 -37 l-8 -40q-6 -30 -12 -50zM672 1694q0 -76 73 -76q76 0 76 76q0 37 -20.5 58.5t-55.5 21.5q-33 0 -53 -21.5t-20 -58.5z" />
<glyph unicode="&#xc6;" horiz-adv-x="1968" d="M25 0v201h120l437 1050h-154v203h1411v-375h-215v160h-414v-399h473v-215h-473v-410h445v160h215v-375h-1100v201h172v428h-358l-170 -428h147v-201h-536zM664 831h278v408h-115z" />
<glyph unicode="&#xc7;" horiz-adv-x="1525" d="M88 733q0 322 216 534t534 212q76 0 165 -14.5t183 -44t156.5 -91t62.5 -141.5v-197h-244v113q0 51 -54 86t-121.5 47t-135.5 12q-211 0 -348 -139t-137 -365q0 -242 141 -391t358 -149q57 0 123 10t129.5 45t63.5 88v113h243v-199q0 -72 -55 -129t-142 -89t-175 -49.5 t-174 -19.5l-23 -86q76 -4 125 -48t49 -113q0 -92 -73.5 -138.5t-176.5 -46.5q-53 0 -86 6l-21 6q-13 3 -16 3v127q4 0 12.5 -3.5t14.5 -5.5q25 -6 68 -6q102 0 102 62q0 63 -119 63h-41l53 187q-289 33 -473 244.5t-184 506.5z" />
<glyph unicode="&#xc8;" horiz-adv-x="1310" d="M102 0v201h174v1050h-174v203h1080v-375h-230v160h-407v-399h479v-215h-479v-410h438v164h229v-379h-1110zM322 1829h280l223 -279h-227z" />
<glyph unicode="&#xc9;" horiz-adv-x="1310" d="M102 0v201h174v1050h-174v203h1080v-375h-230v160h-407v-399h479v-215h-479v-410h438v164h229v-379h-1110zM530 1550l222 279h282l-276 -279h-228z" />
<glyph unicode="&#xca;" horiz-adv-x="1310" d="M102 0v201h174v1050h-174v203h1080v-375h-230v160h-407v-399h479v-215h-479v-410h438v164h229v-379h-1110zM356 1550l189 279h266l188 -279h-217l-102 166h-4l-103 -166h-217z" />
<glyph unicode="&#xcb;" horiz-adv-x="1310" d="M102 0v201h174v1050h-174v203h1080v-375h-230v160h-407v-399h479v-215h-479v-410h438v164h229v-379h-1110zM350 1591v238h213v-238h-213zM795 1591v238h213v-238h-213z" />
<glyph unicode="&#xcc;" horiz-adv-x="825" d="M55 1829h281l223 -279h-227zM102 0v201h174v1050h-174v203h619v-203h-176v-1050h176v-201h-619z" />
<glyph unicode="&#xcd;" horiz-adv-x="825" d="M102 0v201h174v1050h-174v203h619v-203h-176v-1050h176v-201h-619zM264 1550l221 279h283l-276 -279h-228z" />
<glyph unicode="&#xce;" horiz-adv-x="825" d="M90 1550l189 279h266l188 -279h-217l-102 166h-4l-103 -166h-217zM102 0v201h174v1050h-174v203h619v-203h-176v-1050h176v-201h-619z" />
<glyph unicode="&#xcf;" horiz-adv-x="825" d="M84 1591v238h213v-238h-213zM102 0v201h174v1050h-174v203h619v-203h-176v-1050h176v-201h-619zM528 1591v238h213v-238h-213z" />
<glyph unicode="&#xd0;" horiz-adv-x="1613" d="M102 0v201h174v415h-149v215h149v420h-174v203h674q342 0 543 -192.5t201 -532.5q0 -342 -201 -535.5t-543 -193.5h-674zM545 215h217q223 0 351 133t128 381q0 246 -130 378t-349 132h-217v-408h284v-215h-284v-401z" />
<glyph unicode="&#xd1;" horiz-adv-x="1734" d="M102 0v201h174v1050h-174v203h443l612 -936q10 -16 37 -80l16 -43h7l-5 49q-4 61 -4 88v719h-180v203h623v-203h-174v-1251h-269l-612 932q-12 23 -37 80l-16 43h-8l6 -47q5 -52 4 -76v-12v-719h180v-201h-623zM500 1552q0 281 229 281q61 0 108.5 -33t83 -65.5 t68.5 -32.5q80 0 80 125h180q0 -281 -231 -281q-61 0 -108.5 33t-83 65.5t-68.5 32.5q-78 0 -78 -125h-180z" />
<glyph unicode="&#xd2;" horiz-adv-x="1679" d="M86 737q0 313 216 527.5t537.5 214.5t537.5 -214t216 -528q0 -322 -216 -542t-537.5 -220t-537.5 220t-216 542zM362 737q0 -223 139.5 -374.5t338 -151.5t338 151.5t139.5 374.5q0 213 -139.5 359.5t-338 146.5t-338 -146.5t-139.5 -359.5zM483 1829h281l223 -279h-227z " />
<glyph unicode="&#xd3;" horiz-adv-x="1679" d="M86 737q0 313 216 527.5t537.5 214.5t537.5 -214t216 -528q0 -322 -216 -542t-537.5 -220t-537.5 220t-216 542zM362 737q0 -223 139.5 -374.5t338 -151.5t338 151.5t139.5 374.5q0 213 -139.5 359.5t-338 146.5t-338 -146.5t-139.5 -359.5zM692 1550l221 279h283 l-276 -279h-228z" />
<glyph unicode="&#xd4;" horiz-adv-x="1679" d="M86 737q0 313 216 527.5t537.5 214.5t537.5 -214t216 -528q0 -322 -216 -542t-537.5 -220t-537.5 220t-216 542zM362 737q0 -223 139.5 -374.5t338 -151.5t338 151.5t139.5 374.5q0 213 -139.5 359.5t-338 146.5t-338 -146.5t-139.5 -359.5zM518 1550l189 279h266 l188 -279h-217l-102 166h-4l-103 -166h-217z" />
<glyph unicode="&#xd5;" horiz-adv-x="1679" d="M86 737q0 313 216 527.5t537.5 214.5t537.5 -214t216 -528q0 -322 -216 -542t-537.5 -220t-537.5 220t-216 542zM362 737q0 -223 139.5 -374.5t338 -151.5t338 151.5t139.5 374.5q0 213 -139.5 359.5t-338 146.5t-338 -146.5t-139.5 -359.5zM467 1552q0 281 229 281 q61 0 108.5 -33t83.5 -65.5t68 -32.5q80 0 80 125h181q0 -281 -232 -281q-61 0 -108.5 33t-83 65.5t-68.5 32.5q-78 0 -78 -125h-180z" />
<glyph unicode="&#xd6;" horiz-adv-x="1679" d="M86 737q0 313 216 527.5t537.5 214.5t537.5 -214t216 -528q0 -322 -216 -542t-537.5 -220t-537.5 220t-216 542zM362 737q0 -223 139.5 -374.5t338 -151.5t338 151.5t139.5 374.5q0 213 -139.5 359.5t-338 146.5t-338 -146.5t-139.5 -359.5zM512 1591v238h213v-238h-213z M956 1591v238h213v-238h-213z" />
<glyph unicode="&#xd7;" horiz-adv-x="1267" d="M92 141l404 445l-404 442l144 143l397 -438l399 438l144 -143l-406 -442l406 -445l-144 -141l-399 438l-397 -438z" />
<glyph unicode="&#xd8;" horiz-adv-x="1675" d="M86 737q0 313 216 527.5t536 214.5q201 0 372 -95l90 123l117 -80l-88 -122q260 -217 260 -568q0 -322 -216 -542t-535 -220q-219 0 -389 107l-97 -135l-119 80l101 139q-248 221 -248 571zM358 737q0 -213 131 -356l574 797q-102 59 -225 59q-201 0 -340.5 -143.5 t-139.5 -356.5zM596 287q106 -70 242 -70q201 0 340 148.5t139 371.5q0 213 -141 355z" />
<glyph unicode="&#xd9;" horiz-adv-x="1656" d="M63 1251v203h619v-203h-176v-704q0 -125 49 -207q80 -129 274 -129q190 0 273 131q49 84 49 207v702h-174v203h616v-203h-174v-704q0 -219 -106 -365q-158 -207 -483.5 -207t-483.5 205q-109 137 -108 367v704h-175zM471 1829h281l223 -279h-227z" />
<glyph unicode="&#xda;" horiz-adv-x="1656" d="M63 1251v203h619v-203h-176v-704q0 -125 49 -207q80 -129 274 -129q190 0 273 131q49 84 49 207v702h-174v203h616v-203h-174v-704q0 -219 -106 -365q-158 -207 -483.5 -207t-483.5 205q-109 137 -108 367v704h-175zM682 1550l221 279h283l-277 -279h-227z" />
<glyph unicode="&#xdb;" horiz-adv-x="1656" d="M63 1251v203h619v-203h-176v-704q0 -125 49 -207q80 -129 274 -129q190 0 273 131q49 84 49 207v702h-174v203h616v-203h-174v-704q0 -219 -106 -365q-158 -207 -483.5 -207t-483.5 205q-109 137 -108 367v704h-175zM508 1550l188 279h267l188 -279h-217l-103 166h-4 l-102 -166h-217z" />
<glyph unicode="&#xdc;" horiz-adv-x="1656" d="M63 1251v203h619v-203h-176v-704q0 -125 49 -207q80 -129 274 -129q190 0 273 131q49 84 49 207v702h-174v203h616v-203h-174v-704q0 -219 -106 -365q-158 -207 -483.5 -207t-483.5 205q-109 137 -108 367v704h-175zM500 1591v238h213v-238h-213zM944 1591v238h213v-238 h-213z" />
<glyph unicode="&#xdd;" horiz-adv-x="1347" d="M20 1251v203h541v-203h-141l221 -381q10 -16 23 -45q2 -4 8 -20h4q6 16 8 20q8 18 25 45l221 381h-139v203h536v-203h-131l-387 -643v-407h174v-201h-618v201h176v407l-387 643h-134zM530 1550l222 279h282l-276 -279h-228z" />
<glyph unicode="&#xde;" horiz-adv-x="1347" d="M102 0v201h174v1050h-174v203h619v-203h-180v-125h319q205 0 322.5 -101t117.5 -280q0 -180 -117.5 -285.5t-322.5 -105.5h-319v-153h180v-201h-619zM541 555h256q236 0 235 190q0 180 -231 181h-260v-371z" />
<glyph unicode="&#xdf;" horiz-adv-x="1306" d="M59 0v195h152v888q0 182 140.5 289t332.5 107q178 0 300 -101.5t122 -255.5q0 -63 -28.5 -117.5t-62.5 -87t-62.5 -74.5t-28.5 -81t51 -84t113.5 -86t113.5 -115t51 -162q0 -158 -107.5 -243.5t-260.5 -85.5q-119 0 -207 26q-45 14 -68 27v221q29 -12 70 -27 q80 -27 168 -26q63 0 104 29.5t41 93.5q0 45 -52 93t-113.5 87t-113.5 104.5t-52 141.5q0 68 46 131l91 120q45 56 45 111q0 57 -44 98t-124 41q-86 0 -145.5 -49t-59.5 -143v-1065h-412z" />
<glyph unicode="&#xe0;" d="M57 293q0 90 46.5 158.5t111 104.5t152.5 57.5t151.5 26.5t126.5 5h66v35q0 180 -193 180q-94 0 -205 -49q-43 -18 -90 -51l-96 180q53 41 113 66q139 63 301 63q211 0 320.5 -105.5t109.5 -306.5v-417q0 -45 45 -45h94v-195h-246q-68 0 -100.5 30.5t-32.5 80.5v12 q0 18 4 39q2 6 2 14h-4q-27 -53 -74 -100q-109 -100 -256 -101q-145 0 -245.5 83t-100.5 235zM193 1452h280l223 -278h-227zM319 313q0 -61 41 -102t111 -41q100 0 171 89t71 194v34h-43q-51 0 -100.5 -6t-112 -21.5t-100.5 -53.5t-38 -93z" />
<glyph unicode="&#xe1;" d="M57 293q0 90 46.5 158.5t111 104.5t152.5 57.5t151.5 26.5t126.5 5h66v35q0 180 -193 180q-94 0 -205 -49q-43 -18 -90 -51l-96 180q53 41 113 66q139 63 301 63q211 0 320.5 -105.5t109.5 -306.5v-417q0 -45 45 -45h94v-195h-246q-68 0 -100.5 30.5t-32.5 80.5v12 q0 18 4 39q2 6 2 14h-4q-27 -53 -74 -100q-109 -100 -256 -101q-145 0 -245.5 83t-100.5 235zM319 313q0 -61 41 -102t111 -41q100 0 171 89t71 194v34h-43q-51 0 -100.5 -6t-112 -21.5t-100.5 -53.5t-38 -93zM401 1174l222 278h282l-276 -278h-228z" />
<glyph unicode="&#xe2;" d="M57 293q0 90 46.5 158.5t111 104.5t152.5 57.5t151.5 26.5t126.5 5h66v35q0 180 -193 180q-94 0 -205 -49q-43 -18 -90 -51l-96 180q53 41 113 66q139 63 301 63q211 0 320.5 -105.5t109.5 -306.5v-417q0 -45 45 -45h94v-195h-246q-68 0 -100.5 30.5t-32.5 80.5v12 q0 18 4 39q2 6 2 14h-4q-27 -53 -74 -100q-109 -100 -256 -101q-145 0 -245.5 83t-100.5 235zM227 1174l189 278h266l188 -278h-217l-102 165h-4l-103 -165h-217zM319 313q0 -61 41 -102t111 -41q100 0 171 89t71 194v34h-43q-51 0 -100.5 -6t-112 -21.5t-100.5 -53.5 t-38 -93z" />
<glyph unicode="&#xe3;" d="M57 293q0 90 46.5 158.5t111 104.5t152.5 57.5t151.5 26.5t126.5 5h66v35q0 180 -193 180q-94 0 -205 -49q-43 -18 -90 -51l-96 180q53 41 113 66q139 63 301 63q211 0 320.5 -105.5t109.5 -306.5v-417q0 -45 45 -45h94v-195h-246q-68 0 -100.5 30.5t-32.5 80.5v12 q0 18 4 39q2 6 2 14h-4q-27 -53 -74 -100q-109 -100 -256 -101q-145 0 -245.5 83t-100.5 235zM176 1176q0 281 229 280q61 0 108.5 -32.5t83.5 -65.5t69 -33q80 0 79 125h181q0 -281 -232 -281q-61 0 -108 33t-83 65.5t-69 32.5q-78 0 -78 -124h-180zM319 313q0 -61 41 -102 t111 -41q100 0 171 89t71 194v34h-43q-51 0 -100.5 -6t-112 -21.5t-100.5 -53.5t-38 -93z" />
<glyph unicode="&#xe4;" d="M57 293q0 90 46.5 158.5t111 104.5t152.5 57.5t151.5 26.5t126.5 5h66v35q0 180 -193 180q-94 0 -205 -49q-43 -18 -90 -51l-96 180q53 41 113 66q139 63 301 63q211 0 320.5 -105.5t109.5 -306.5v-417q0 -45 45 -45h94v-195h-246q-68 0 -100.5 30.5t-32.5 80.5v12 q0 18 4 39q2 6 2 14h-4q-27 -53 -74 -100q-109 -100 -256 -101q-145 0 -245.5 83t-100.5 235zM221 1214v238h213v-238h-213zM319 313q0 -61 41 -102t111 -41q100 0 171 89t71 194v34h-43q-51 0 -100.5 -6t-112 -21.5t-100.5 -53.5t-38 -93zM666 1214v238h213v-238h-213z" />
<glyph unicode="&#xe5;" d="M57 293q0 90 46.5 158.5t111 104.5t152.5 57.5t151.5 26.5t126.5 5h66v35q0 180 -193 180q-94 0 -205 -49q-43 -18 -90 -51l-96 180q53 41 113 66q139 63 301 63q211 0 320.5 -105.5t109.5 -306.5v-417q0 -45 45 -45h94v-195h-246q-68 0 -100.5 30.5t-32.5 80.5v12 q0 18 4 39q2 6 2 14h-4q-27 -53 -74 -100q-109 -100 -256 -101q-145 0 -245.5 83t-100.5 235zM319 313q0 -61 41 -102t111 -41q100 0 171 89t71 194v34h-43q-51 0 -100.5 -6t-112 -21.5t-100.5 -53.5t-38 -93zM342 1317q0 82 62.5 129t146.5 47q86 0 148.5 -47t62.5 -129 t-62.5 -128t-148.5 -46q-84 0 -146.5 46t-62.5 128zM477 1317q0 -76 74 -76q76 0 76 76q0 37 -20.5 58.5t-55.5 21.5q-33 0 -53.5 -21.5t-20.5 -58.5z" />
<glyph unicode="&#xe6;" horiz-adv-x="1753" d="M57 297q0 344 613 344h41v29q0 190 -195 190q-96 0 -207 -49q-43 -18 -90 -51l-96 180q53 41 113 66q139 63 303 63q236 0 327 -154h4q125 154 349 154q213 0 336.5 -141.5t123.5 -356.5q0 -37 -2 -55l-4 -31h-715q12 -145 97.5 -221t210.5 -76q111 0 213 58q49 25 88 57 l100 -178q-51 -41 -113 -74q-139 -76 -307 -76q-299 0 -436 230h-4q-12 -27 -35.5 -57.5t-70 -72.5t-122 -70t-165.5 -28q-150 0 -253.5 86.5t-103.5 233.5zM313 309q0 -57 42 -96t114 -39q100 0 172 88t72 191v30h-72q-328 0 -328 -174zM967 641h450q-4 100 -61.5 162.5 t-138.5 62.5q-203 0 -250 -225z" />
<glyph unicode="&#xe7;" horiz-adv-x="1142" d="M70 520q0 233 160.5 391t400.5 158q96 0 188 -22.5t166 -82t74 -145.5v-143h-225v69q0 49 -59.5 76t-135.5 27q-141 0 -224 -88t-83 -234q0 -156 94 -243.5t233 -87.5q164 0 326 127l92 -185q-66 -59 -175 -108t-240 -54l-23 -86q76 -4 125 -48t49 -113 q0 -92 -72.5 -138.5t-177.5 -46.5q-51 0 -86 6l-21 6q-13 3 -16 3v127q4 0 12.5 -3.5t14.5 -5.5q25 -6 68 -6q100 0 100 62q0 63 -117 63h-41l53 191q-199 33 -329.5 176t-130.5 358z" />
<glyph unicode="&#xe8;" horiz-adv-x="1142" d="M72 522q0 242 147.5 394.5t382.5 152.5q219 0 342 -140.5t123 -355.5q0 -37 -2 -55l-4 -33h-723q12 -137 100 -213.5t213 -76.5q115 0 215 55q47 23 88 55l101 -184q-37 -33 -113 -72q-139 -74 -309 -74q-252 0 -406.5 159t-154.5 388zM244 1452h280l224 -278h-228z M344 639h455q-4 106 -60.5 167.5t-142.5 61.5q-98 0 -166 -62.5t-86 -166.5z" />
<glyph unicode="&#xe9;" horiz-adv-x="1142" d="M72 522q0 242 147.5 394.5t382.5 152.5q219 0 342 -140.5t123 -355.5q0 -37 -2 -55l-4 -33h-723q12 -137 100 -213.5t213 -76.5q115 0 215 55q47 23 88 55l101 -184q-37 -33 -113 -72q-139 -74 -309 -74q-252 0 -406.5 159t-154.5 388zM344 639h455q-4 106 -60.5 167.5 t-142.5 61.5q-98 0 -166 -62.5t-86 -166.5zM453 1174l221 278h282l-276 -278h-227z" />
<glyph unicode="&#xea;" horiz-adv-x="1142" d="M72 522q0 242 147.5 394.5t382.5 152.5q219 0 342 -140.5t123 -355.5q0 -37 -2 -55l-4 -33h-723q12 -137 100 -213.5t213 -76.5q115 0 215 55q47 23 88 55l101 -184q-37 -33 -113 -72q-139 -74 -309 -74q-252 0 -406.5 159t-154.5 388zM279 1174l188 278h266l189 -278 h-217l-103 165h-4l-102 -165h-217zM344 639h455q-4 106 -60.5 167.5t-142.5 61.5q-98 0 -166 -62.5t-86 -166.5z" />
<glyph unicode="&#xeb;" horiz-adv-x="1142" d="M72 522q0 242 147.5 394.5t382.5 152.5q219 0 342 -140.5t123 -355.5q0 -37 -2 -55l-4 -33h-723q12 -137 100 -213.5t213 -76.5q115 0 215 55q47 23 88 55l101 -184q-37 -33 -113 -72q-139 -74 -309 -74q-252 0 -406.5 159t-154.5 388zM272 1214v238h213v-238h-213z M344 639h455q-4 106 -60.5 167.5t-142.5 61.5q-98 0 -166 -62.5t-86 -166.5zM717 1214v238h213v-238h-213z" />
<glyph unicode="&#xec;" horiz-adv-x="702" d="M8 1452h281l223 -278h-227zM86 850v194h412v-849h143v-195h-547v195h144v655h-152z" />
<glyph unicode="&#xed;" horiz-adv-x="702" d="M86 850v194h412v-849h143v-195h-547v195h144v655h-152zM219 1174l221 278h283l-277 -278h-227z" />
<glyph unicode="&#xee;" horiz-adv-x="702" d="M45 1174l188 278h267l188 -278h-217l-102 165h-4l-103 -165h-217zM86 850v194h412v-849h143v-195h-547v195h144v655h-152z" />
<glyph unicode="&#xef;" horiz-adv-x="702" d="M57 1214v240h211v-240h-211zM86 850v194h412v-849h143v-195h-547v195h144v655h-152zM444 1214v240h213v-240h-213z" />
<glyph unicode="&#xf0;" horiz-adv-x="1212" d="M76 485q0 190 130 328.5t349 138.5q76 0 154 -28q33 -12 55 -31h4q-61 139 -199 225l-370 -157l-13 124l244 107q-104 53 -254 90l72 205q260 -57 461 -178l286 125l13 -127l-189 -82q289 -254 289 -656q0 -86 -17.5 -169t-58.5 -160.5t-101.5 -136t-151.5 -93.5 t-204 -35q-229 0 -364 151.5t-135 358.5zM338 479q0 -117 63.5 -200.5t178.5 -83.5q133 0 199.5 98t66.5 229q0 100 -66.5 164t-177.5 64q-127 0 -195.5 -79t-68.5 -192z" />
<glyph unicode="&#xf1;" horiz-adv-x="1427" d="M84 850v194h274q135 0 136 -116v-47q0 -23 -2 -31q-2 -6 -3 -14h5q6 18 29.5 51t67.5 77t120.5 74.5t167.5 30.5q350 0 350 -397v-477h151v-195h-409v618q0 104 -37 158.5t-129 54.5q-135 0 -217 -108.5t-82 -253.5v-274h149v-195h-561v195h152v610q0 45 -45 45h-117z M377 1176q0 281 229 280q61 0 108.5 -32.5t83.5 -65.5t68 -33q80 0 80 125h180q0 -281 -231 -281q-61 0 -108.5 33t-83 65.5t-68.5 32.5q-78 0 -78 -124h-180z" />
<glyph unicode="&#xf2;" horiz-adv-x="1288" d="M70 522.5q0 237.5 165.5 392t407.5 154.5t409 -154.5t167 -392t-166 -392.5t-408 -155q-244 0 -409.5 155t-165.5 392.5zM287 1452h280l224 -278h-228zM334 522q0 -143 90 -234t221 -91t220 91t89 234q0 141 -90 233.5t-219 92.5t-220 -92.5t-91 -233.5z" />
<glyph unicode="&#xf3;" horiz-adv-x="1288" d="M70 522.5q0 237.5 165.5 392t407.5 154.5t409 -154.5t167 -392t-166 -392.5t-408 -155q-244 0 -409.5 155t-165.5 392.5zM334 522q0 -143 90 -234t221 -91t220 91t89 234q0 141 -90 233.5t-219 92.5t-220 -92.5t-91 -233.5zM498 1174l221 278h282l-276 -278h-227z" />
<glyph unicode="&#xf4;" horiz-adv-x="1288" d="M70 522.5q0 237.5 165.5 392t407.5 154.5t409 -154.5t167 -392t-166 -392.5t-408 -155q-244 0 -409.5 155t-165.5 392.5zM324 1174l188 278h266l189 -278h-217l-103 165h-4l-102 -165h-217zM334 522q0 -143 90 -234t221 -91t220 91t89 234q0 141 -90 233.5t-219 92.5 t-220 -92.5t-91 -233.5z" />
<glyph unicode="&#xf5;" horiz-adv-x="1288" d="M70 522.5q0 237.5 165.5 392t407.5 154.5t409 -154.5t167 -392t-166 -392.5t-408 -155q-244 0 -409.5 155t-165.5 392.5zM270 1176q0 281 230 280q61 0 108 -32.5t83 -65.5t69 -33q80 0 80 125h180q0 -281 -232 -281q-61 0 -108 33t-83 65.5t-69 32.5q-78 0 -77 -124 h-181zM334 522q0 -143 90 -234t221 -91t220 91t89 234q0 141 -90 233.5t-219 92.5t-220 -92.5t-91 -233.5z" />
<glyph unicode="&#xf6;" horiz-adv-x="1288" d="M70 522.5q0 237.5 165.5 392t407.5 154.5t409 -154.5t167 -392t-166 -392.5t-408 -155q-244 0 -409.5 155t-165.5 392.5zM315 1214v238h213v-238h-213zM334 522q0 -143 90 -234t221 -91t220 91t89 234q0 141 -90 233.5t-219 92.5t-220 -92.5t-91 -233.5zM760 1214v238 h213v-238h-213z" />
<glyph unicode="&#xf7;" horiz-adv-x="1267" d="M100 483v203h1067v-203h-1067zM516 55v221h236v-221h-236zM516 895v221h236v-221h-236z" />
<glyph unicode="&#xf8;" horiz-adv-x="1286" d="M70 522q0 238 165.5 392.5t407.5 154.5q143 0 279 -68l82 117l102 -71l-82 -111q195 -164 195 -414q0 -238 -167 -392.5t-409 -154.5q-141 0 -264 60l-84 -119l-102 74l77 108q-200 160 -200 424zM334 522q0 -127 84 -221l366 512q-78 35 -141 35q-129 0 -219 -92.5 t-90 -233.5zM516 225q68 -29 127 -28q131 0 221 91t90 234q0 109 -75 207z" />
<glyph unicode="&#xf9;" horiz-adv-x="1386" d="M45 850v194h422v-626q0 -102 36 -156.5t128 -54.5q129 0 209 111.5t80 261.5v270h-160v194h420v-806q0 -45 45 -45h100v-193h-258q-135 0 -135 117v39q0 8 1 19t1 15v15h-4q-6 -20 -29.5 -52t-66.5 -75t-119 -73t-166 -30q-342 0 -342 398v477h-162zM307 1452h281 l223 -278h-227z" />
<glyph unicode="&#xfa;" horiz-adv-x="1386" d="M45 850v194h422v-626q0 -102 36 -156.5t128 -54.5q129 0 209 111.5t80 261.5v270h-160v194h420v-806q0 -45 45 -45h100v-193h-258q-135 0 -135 117v39q0 8 1 19t1 15v15h-4q-6 -20 -29.5 -52t-66.5 -75t-119 -73t-166 -30q-342 0 -342 398v477h-162zM518 1174l221 278 h283l-277 -278h-227z" />
<glyph unicode="&#xfb;" horiz-adv-x="1386" d="M45 850v194h422v-626q0 -102 36 -156.5t128 -54.5q129 0 209 111.5t80 261.5v270h-160v194h420v-806q0 -45 45 -45h100v-193h-258q-135 0 -135 117v39q0 8 1 19t1 15v15h-4q-6 -20 -29.5 -52t-66.5 -75t-119 -73t-166 -30q-342 0 -342 398v477h-162zM344 1174l188 278 h267l188 -278h-217l-102 165h-4l-103 -165h-217z" />
<glyph unicode="&#xfc;" horiz-adv-x="1386" d="M45 850v194h422v-626q0 -102 36 -156.5t128 -54.5q129 0 209 111.5t80 261.5v270h-160v194h420v-806q0 -45 45 -45h100v-193h-258q-135 0 -135 117v39q0 8 1 19t1 15v15h-4q-6 -20 -29.5 -52t-66.5 -75t-119 -73t-166 -30q-342 0 -342 398v477h-162zM336 1214v238h213 v-238h-213zM780 1214v238h213v-238h-213z" />
<glyph unicode="&#xfd;" horiz-adv-x="1241" d="M20 850v194h515v-194h-123l190 -528q6 -14 11 -42t8 -32q4 -25 4 -35h6l6 35q16 57 22 74l189 528h-121v194h494v-194h-119l-385 -985q-115 -295 -414 -295q-96 0 -184 35q-37 14 -70 37l84 190q23 -16 43 -25q45 -25 115 -24q131 0 184 121l29 65l-359 881h-125z M483 1174l222 278h282l-276 -278h-228z" />
<glyph unicode="&#xfe;" horiz-adv-x="1271" d="M4 1454h418v-453v-63q0 -18 -2 -25h4q27 45 68 78q98 78 237 78q211 0 340 -153.5t129 -393t-132 -393.5t-341 -154q-145 0 -236 74q-39 33 -67 74h-4q0 -14 2 -25q2 -16 2 -65v-248h151v-195h-561v195h150v1475h-158v194zM416 520q0 -152 71.5 -238.5t190.5 -86.5 q113 0 185.5 92t72.5 235.5t-69.5 234.5t-184.5 91q-117 0 -191.5 -80t-74.5 -248z" />
<glyph unicode="&#xff;" horiz-adv-x="1241" d="M20 850v194h515v-194h-123l190 -528q6 -14 11 -42t8 -32q4 -25 4 -35h6l6 35q16 57 22 74l189 528h-121v194h494v-194h-119l-385 -985q-115 -295 -414 -295q-96 0 -184 35q-37 14 -70 37l84 190q23 -16 43 -25q45 -25 115 -24q131 0 184 121l29 65l-359 881h-125z M301 1214v238h213v-238h-213zM745 1214v238h213v-238h-213z" />
<glyph unicode="&#x152;" horiz-adv-x="2021" d="M86 729q0 313 220 527t544 214q61 0 142 -8t116 -8h784v-375h-215v160h-413v-401h471v-213h-471v-410h444v160h215v-375h-815q-33 0 -115 -9t-143 -9q-322 0 -543 217t-221 530zM358 729q0 -223 140.5 -374.5t351.5 -151.5q70 0 104 8l41 6v1018l-41 8q-35 8 -104 8 q-211 0 -351.5 -151.5t-140.5 -370.5z" />
<glyph unicode="&#x153;" horiz-adv-x="2021" d="M70 520.5q0 241.5 163.5 395t401.5 153.5q281 0 432 -215h4q135 215 412 215q219 0 341 -139t122 -357q0 -39 -2 -57l-5 -33h-718q16 -141 103 -218t208 -77q111 0 213 58q49 25 88 57l100 -178q-51 -41 -112 -74q-139 -76 -308 -76q-295 0 -436 222h-4 q-156 -221 -438 -222q-238 0 -401.5 152t-163.5 393.5zM332 520.5q0 -145.5 90 -234.5t221 -89t220 89t89 236q0 145 -90 235.5t-219 90.5q-131 0 -221 -91t-90 -236.5zM1227 639h456q-4 102 -60 165.5t-142 63.5q-102 0 -169 -61.5t-85 -167.5z" />
<glyph unicode="&#x178;" horiz-adv-x="1347" d="M20 1251v203h541v-203h-141l221 -381q10 -16 23 -45q2 -4 8 -20h4q6 16 8 20q8 18 25 45l221 381h-139v203h536v-203h-131l-387 -643v-407h174v-201h-618v201h176v407l-387 643h-134zM350 1591v238h213v-238h-213zM795 1591v238h213v-238h-213z" />
<glyph unicode="&#x2c6;" horiz-adv-x="1011" d="M184 1550l189 279h266l188 -279h-217l-102 166h-4l-103 -166h-217z" />
<glyph unicode="&#x2dc;" horiz-adv-x="1009" d="M131 1552q0 281 229 281q61 0 108.5 -33t83.5 -65.5t69 -32.5q80 0 79 125h181q0 -281 -232 -281q-61 0 -108 33t-83 65.5t-69 32.5q-78 0 -78 -125h-180z" />
<glyph unicode="&#x2013;" horiz-adv-x="1474" d="M170 483v203h1135v-203h-1135z" />
<glyph unicode="&#x2014;" horiz-adv-x="1884" d="M170 483v203h1544v-203h-1544z" />
<glyph unicode="&#x2018;" horiz-adv-x="491" d="M82 1004l160 475h184l-104 -475h-240z" />
<glyph unicode="&#x2019;" horiz-adv-x="475" d="M90 1004l105 475h237l-160 -475h-182z" />
<glyph unicode="&#x201a;" horiz-adv-x="526" d="M66 -211l102 475h233l-159 -475h-176z" />
<glyph unicode="&#x201c;" horiz-adv-x="833" d="M82 1004l160 475h184l-104 -475h-240zM424 1004l160 475h184l-104 -475h-240z" />
<glyph unicode="&#x201d;" horiz-adv-x="819" d="M90 1004l105 475h239l-160 -475h-184zM432 1004l103 475h241l-160 -475h-184z" />
<glyph unicode="&#x201e;" horiz-adv-x="860" d="M66 -211l102 475h233l-159 -475h-176zM399 -211l103 475h233l-160 -475h-176z" />
<glyph unicode="&#x2022;" horiz-adv-x="868" d="M92 596q0 141 100.5 241.5t241.5 100.5t241.5 -100.5t100.5 -241.5t-100.5 -241.5t-241.5 -100.5t-241.5 100.5t-100.5 241.5z" />
<glyph unicode="&#x2026;" horiz-adv-x="1705" d="M143 0v262h252v-262h-252zM725 0v262h254v-262h-254zM1309 0v262h254v-262h-254z" />
<glyph unicode="&#x2039;" horiz-adv-x="761" d="M76 578l336 421h247l-335 -421l335 -420h-247z" />
<glyph unicode="&#x203a;" horiz-adv-x="761" d="M102 158l336 420l-336 421h248l336 -421l-336 -420h-248z" />
<glyph unicode="&#x20ac;" horiz-adv-x="1236" d="M84 647h115q-6 48 -6 94q0 37 4 74h-113v150h141q68 225 258.5 369.5t438.5 144.5q72 0 153 -13q45 -8 66 -14l-62 -227l-51 12q-57 10 -113 10q-145 0 -251.5 -75.5t-155.5 -206.5h520l-33 -150h-524q-4 -33 -4 -69q0 -46 6 -99h492l-33 -149h-414q49 -131 157.5 -209 t250.5 -78q74 0 135 14l57 15l45 -228l-69 -18q-78 -18 -172 -19q-258 0 -445.5 145.5t-251.5 377.5h-141v149z" />
<glyph unicode="&#x2122;" horiz-adv-x="1974" d="M51 1282v172h801v-172h-301v-735h-197v735h-303zM907 547l72 907h180l189 -428q4 -10 10 -30l8 -25l8 -31h4q4 20 8 31l21 55l188 428h181l69 -907h-196l-33 467v43q0 14 2 20h-4l-160 -364h-154l-159 364h-4q2 -6 2 -20v-43l-37 -467h-195z" />
<glyph unicode="&#xe000;" horiz-adv-x="1045" d="M0 1045h1045v-1045h-1045v1045z" />
<glyph unicode="&#xfb01;" horiz-adv-x="1449" d="M84 850v194h162v48q0 96 29.5 167.5t73.5 111.5t103.5 63.5t106.5 31t96 7.5q39 0 76 -5l31 -4v-209l-21 5q-14 2 -59 2q-176 0 -176 -164v-54h733v-849h152v-195h-562v195h152v655h-475v-655h176v-195h-588v195h152v655h-162zM979 1223v231h262v-231h-262z" />
<glyph unicode="&#xfb02;" horiz-adv-x="1423" d="M84 850v194h162v27q0 117 44 201t120.5 130t167 67.5t196.5 21.5q145 0 305 -29q51 -10 125 -28v-1086q0 -78 22.5 -110.5t88.5 -32.5q8 0 18 1t15 1h12v-209l-29 -4q-18 -2 -67 -2q-145 0 -232.5 72.5t-87.5 267.5v938q-2 0 -47 10q-57 10 -135 10q-256 0 -256 -213v-33 h235v-194h-235v-655h176v-195h-588v195h152v655h-162z" />
<glyph unicode="&#xfb03;" horiz-adv-x="2185" d="M84 850v194h162v48q0 96 29.5 167.5t73.5 111.5t103.5 63.5t106.5 31t96 7.5q39 0 76 -5l31 -4v-209l-21 5q-14 2 -59 2q-176 0 -176 -164v-54h475v48q0 96 29.5 167.5t72.5 111.5t102.5 63.5t106.5 31t97 7.5q41 0 77 -5l31 -4v-209l-20 5q-14 2 -60 2q-178 0 -178 -164 v-54h735v-849h152v-195h-563v195h151v655h-475v-655h178v-195h-588v195h152v655h-475v-655h176v-195h-588v195h152v655h-162zM1712 1223v231h264v-231h-264z" />
<glyph unicode="&#xfb04;" horiz-adv-x="2158" d="M84 850v194h162v48q0 96 29.5 167.5t72.5 111.5t102.5 63.5t106.5 31t98 7.5q39 0 76 -5l31 -4v-209l-21 5q-14 2 -57 2q-178 0 -178 -164v-54h475v27q0 117 44 201t121 130t167 67.5t196 21.5q145 0 306 -29q51 -10 124 -28v-1086q0 -78 23 -110.5t88 -32.5q8 0 17.5 1 t13.5 1h14v-209l-29 -4q-18 -2 -69 -2q-143 0 -230.5 72.5t-87.5 267.5v938l-49 10q-57 10 -133 10q-117 0 -187.5 -51t-70.5 -162v-33h238v-194h-238v-655h178v-195h-588v195h152v655h-475v-655h176v-195h-588v195h152v655h-162z" />
<glyph horiz-adv-x="512" />
</font>
</defs>
</svg>
