<?xml version="1.0" standalone="no"?>
<!DOCTYPE svg PUBLIC "-//W3C//DTD SVG 1.1//EN" "http://www.w3.org/Graphics/SVG/1.1/DTD/svg11.dtd" >
<svg xmlns="http://www.w3.org/2000/svg">
<metadata>
This is a custom SVG webfont generated by Font Squirrel.
Copyright   : Copyright c 2009 by Jos Buivenga All rights reserved TKrip
Designer    : Jos Buivenga
Foundry     : Jos Buivenga
Foundry URL : httpwwwexljbriscom
</metadata>
<defs>
<font id="MuseoSlab100Italic" horiz-adv-x="1228" >
<font-face units-per-em="2048" ascent="1536" descent="-512" />
<missing-glyph horiz-adv-x="512" />
<glyph unicode=" "  horiz-adv-x="512" />
<glyph unicode="&#x09;" horiz-adv-x="512" />
<glyph unicode="&#xa0;" horiz-adv-x="512" />
<glyph unicode="!" horiz-adv-x="456" d="M49 0l27 125h121l-27 -125h-121zM135 358l211 1076h88l-211 -1076h-88z" />
<glyph unicode="&#x22;" horiz-adv-x="602" d="M238 1061l75 391h88l-75 -391h-88zM451 1061l75 391h88l-75 -391h-88z" />
<glyph unicode="#" horiz-adv-x="1492" d="M63 408l31 81h309l168 453h-309l31 82h309l152 410h90l-152 -410h387l152 410h90l-152 -410h304l-31 -82h-303l-168 -453h303l-31 -81h-303l-152 -408h-90l152 408h-387l-152 -408h-90l152 408h-310zM494 489h387l168 453h-387z" />
<glyph unicode="$" horiz-adv-x="1067" d="M27 184l65 60q43 -47 88 -76q113 -76 254 -76q158 0 276.5 88t118.5 219q0 88 -63.5 152.5t-154.5 108.5l-181 90q-90 45 -153.5 120.5t-63.5 178.5q0 150 122 254q123 104 327 120l45 226h88l-43 -226q125 -8 229 -69q47 -27 78 -60l-60 -69q-29 35 -73 59 q-96 57 -234 57q-170 0 -277.5 -85t-107.5 -205q0 -86 63.5 -148.5t153.5 -103.5l182 -85q91 -44 154.5 -120t63.5 -178q0 -158 -127 -274.5t-322 -133.5l-43 -221h-88l43 221q-158 10 -274 94q-53 39 -86 82z" />
<glyph unicode="%" horiz-adv-x="1411" d="M-4 0l1356 1434h116l-1357 -1434h-115zM223 1159q0 113 96.5 206t217.5 93q106 0 168.5 -63.5t62.5 -167.5q0 -117 -96.5 -210t-214.5 -93q-109 0 -171.5 63t-62.5 172zM311 1153q0 -63 41 -105t109 -42q88 0 153.5 66.5t65.5 156.5q0 63 -41 105t-107 42 q-86 0 -153.5 -67.5t-67.5 -155.5zM686 211q0 113 96.5 206t216.5 93q106 0 169 -63.5t63 -167.5q0 -117 -96.5 -210.5t-214.5 -93.5q-109 0 -171.5 63.5t-62.5 172.5zM774 205q0 -63 41 -105.5t109 -42.5q88 0 153.5 65.5t65.5 158.5q0 63 -41 105t-107 42 q-86 0 -153.5 -67.5t-67.5 -155.5z" />
<glyph unicode="&#x26;" horiz-adv-x="1308" d="M78 326q0 154 98 281.5t256 168.5v4q-39 14 -76 51q-78 78 -77 205q0 178 133 300t333 122q66 0 123 -10l52 -12l-41 -80q-29 8 -43 10q-35 8 -95 8q-150 0 -259 -94t-109 -246q0 -219 301 -219h334l41 209h88l-41 -209h198l-16 -82h-199l-45 -229q-104 -528 -542 -529 q-193 0 -303.5 96.5t-110.5 254.5zM170 340q0 -131 83 -206t239 -75q362 0 454 445l45 229h-329q-205 0 -348.5 -106.5t-143.5 -286.5z" />
<glyph unicode="'" horiz-adv-x="389" d="M238 1061l75 391h88l-75 -391h-88z" />
<glyph unicode="(" horiz-adv-x="591" d="M150 344q0 627 411 1141h94q-422 -537 -422 -1143q0 -276 97 -537h-86q-94 256 -94 539z" />
<glyph unicode=")" horiz-adv-x="595" d="M-43 -195q422 537 422 1143q0 276 -96 537h86q94 -256 94 -539q0 -627 -412 -1141h-94z" />
<glyph unicode="*" horiz-adv-x="978" d="M205 1124l43 84l295 -110l55 336h96l-76 -336l343 108l12 -86l-342 -100v-4l145 -262l-76 -52l-139 275h-4l-244 -272l-67 53l254 268v4z" />
<glyph unicode="+" d="M74 539l14 82h485l107 538h88l-106 -538h483l-15 -82h-483l-106 -539h-88l106 539h-485z" />
<glyph unicode="," horiz-adv-x="497" d="M-96 -274l215 399h112l-237 -399h-90z" />
<glyph unicode="-" horiz-adv-x="1079" d="M244 539l14 82h565l-14 -82h-565z" />
<glyph unicode="." horiz-adv-x="483" d="M70 0l24 129h125l-24 -129h-125z" />
<glyph unicode="/" horiz-adv-x="823" d="M-29 -86l830 1602h96l-829 -1602h-97z" />
<glyph unicode="0" horiz-adv-x="1267" d="M141 428q0 119 19.5 250t69 272.5t120 252t184 183t252.5 72.5q385 0 385 -457q0 -119 -19 -248.5t-68.5 -271t-120 -252t-184 -182.5t-253.5 -72q-199 0 -292 120t-93 333zM231 424q0 -362 297 -363q119 0 217.5 67t159 168t101.5 231t57 249t16 228q0 369 -295 368 q-139 0 -250.5 -92t-174 -238.5t-95.5 -305t-33 -312.5z" />
<glyph unicode="1" horiz-adv-x="874" d="M-10 0l14 82h326l223 1143q2 8 6 27.5t8 29.5l6 29h-4l-20 -21q-31 -31 -53 -49l-220 -184l-53 65l371 312h88l-264 -1352h317l-16 -82h-729z" />
<glyph unicode="2" horiz-adv-x="1167" d="M12 0q4 117 59.5 217t140.5 173t188 139l206 129q102 62 187.5 128t137.5 152t52 184q0 113 -72.5 182.5t-205.5 69.5q-139 0 -283 -102q-66 -49 -111 -103l-63 52q68 76 127 118q160 119 327 119q182 0 277.5 -92t95.5 -242q0 -145 -90 -264t-222 -204l-268 -164 q-136 -80 -245 -184.5t-133 -225.5h743l41 207h86l-57 -289h-918z" />
<glyph unicode="3" horiz-adv-x="1136" d="M16 174l70 59q35 -47 90 -86q121 -88 256 -88q176 0 312.5 122t136.5 294q0 139 -92.5 210t-235.5 71q-47 0 -70 -2l-32 -4l-17 65l516 496q4 4 35 28q10 8 19 13v4q-16 0 -23 -2q-14 -2 -39 -2h-543l-41 -207h-86l58 289h821l-12 -62l-564 -536q61 2 125 -13.5 t127.5 -52.5t104.5 -110.5t41 -174.5q0 -209 -160 -359.5t-379 -150.5q-166 0 -311 101q-60 41 -107 98z" />
<glyph unicode="4" horiz-adv-x="1179" d="M27 410l12 61l924 963h88l-185 -942h213l-16 -82h-213l-80 -410h-88l80 410h-735zM174 492h604l142 722q2 10 5 29t7 27l8 24h-4l-16 -20q-10 -14 -41 -45l-705 -733v-4z" />
<glyph unicode="5" horiz-adv-x="1128" d="M31 162l65 55q31 -43 78 -78q113 -80 242 -80q186 0 330.5 132.5t144.5 314.5q0 141 -93 226t-241 85q-104 0 -211 -43q-55 -25 -84 -45l-63 23l215 682h665l-57 -289h-86l41 207h-500l-133 -424l-22 -66q-2 -4 -9 -22h4l68 30q80 31 184 31q184 0 299 -109.5t115 -283.5 q0 -217 -172 -375t-399 -158q-166 0 -293 95q-55 43 -88 92z" />
<glyph unicode="6" horiz-adv-x="1204" d="M131 483q0 102 29.5 227.5t94 257.5t154 241.5t219.5 179t277 69.5q94 0 189 -28q33 -10 69 -29l-53 -76q-20 14 -55 25q-68 25 -150 24q-231 0 -405 -198.5t-244 -462.5h4q76 92 188.5 144t233.5 52q174 0 278.5 -97t104.5 -267q0 -139 -62.5 -268.5t-184.5 -215.5 t-275 -86q-199 0 -305.5 139.5t-106.5 368.5zM223 453q0 -154 84 -274t234 -120q180 0 306 141.5t126 344.5q0 131 -79 205.5t-216 74.5q-92 0 -195.5 -45t-181.5 -134t-78 -193z" />
<glyph unicode="7" horiz-adv-x="1075" d="M127 0l887 1294l33 43l14 15v4q-14 0 -21 -2q-14 -2 -47 -2h-674l-40 -207h-86l57 289h940l-12 -62l-949 -1372h-102z" />
<glyph unicode="8" horiz-adv-x="1220" d="M92 344q0 94 41 180t110.5 149.5t104.5 89t78 50.5q4 4 6 4q-143 98 -143 244q0 156 134 276.5t345 120.5q186 0 282.5 -81t96.5 -224q0 -82 -37 -167t-95.5 -151.5t-88 -96t-56.5 -52.5q168 -111 168 -260q0 -193 -159.5 -322t-370.5 -129q-176 0 -296 97.5t-120 271.5z M186 344q0 -131 93.5 -208t228.5 -77q168 0 302 103.5t134 261.5q0 51 -24.5 94t-74.5 78t-96.5 58.5l-121 58.5t-115.5 57q-39 -20 -78 -47t-103.5 -82t-104.5 -133t-40 -164zM383 1063q0 -49 21.5 -90t72.5 -78t87 -57.5t117 -57.5l110 -51q29 20 60.5 50t83.5 88.5 t85 134t33 151.5q0 102 -78 161.5t-207 59.5q-164 0 -274.5 -93t-110.5 -218z" />
<glyph unicode="9" horiz-adv-x="1200" d="M90 33l47 76q25 -16 58 -25q68 -25 147 -25q231 0 405.5 199t243.5 463h-4q-76 -92 -189.5 -144.5t-234.5 -52.5q-174 0 -277.5 97.5t-103.5 267.5q0 139 62.5 268t184.5 215t276 86q199 0 305 -139t106 -369q0 -102 -29.5 -227t-94 -257t-153.5 -241.5t-219.5 -179.5 t-277.5 -70q-100 0 -186 29q-35 13 -66 29zM274 889q0 -131 78 -206t211 -75q92 0 196.5 45t184.5 134.5t80 193.5q0 154 -83 273.5t-230 119.5q-182 0 -309.5 -141t-127.5 -344z" />
<glyph unicode=":" horiz-adv-x="626" d="M135 0l25 129h125l-25 -129h-125zM309 895l25 129h125l-25 -129h-125z" />
<glyph unicode=";" horiz-adv-x="638" d="M-33 -274l203 399h125l-238 -399h-90zM319 895l25 129h125l-25 -129h-125z" />
<glyph unicode="&#x3c;" d="M121 543v73l899 404v-98l-772 -340v-4l772 -340v-99z" />
<glyph unicode="=" d="M137 375v82h934v-82h-934zM137 702v82h934v-82h-934z" />
<glyph unicode="&#x3e;" d="M199 139v99l772 340v4l-772 340v98l899 -404v-73z" />
<glyph unicode="?" horiz-adv-x="921" d="M203 0l26 125h121l-26 -125h-121zM240 1362q45 29 94 49q111 47 223 47q158 0 249 -82t91 -215q0 -100 -46 -183t-114.5 -141.5t-139.5 -112.5t-129 -125t-75 -150l-18 -91h-88l18 91q20 96 79.5 177t128.5 136l135 110q67 55 111 127t44 158q0 94 -67.5 154.5 t-182.5 60.5q-98 0 -197 -43q-41 -18 -82 -43z" />
<glyph unicode="@" horiz-adv-x="1550" d="M80 365q0 172 73.5 334.5t195.5 281.5t285 191.5t333 72.5q195 0 293 -86t98 -219q0 -37 -6 -68l-135 -694h143l-17 -82h-526q-152 0 -247 94.5t-95 237.5q0 186 146.5 326.5t343.5 140.5h299q0 10 2 16q2 10 2 35q0 90 -78 153.5t-234 63.5q-205 0 -387 -111.5 t-289.5 -296t-107.5 -390.5q0 -236 142.5 -383.5t373.5 -147.5l-16 -84q-256 0 -424 173.5t-168 441.5zM567 434q0 -113 72 -184.5t188 -71.5h297l123 635h-293q-150 0 -268.5 -116t-118.5 -263z" />
<glyph unicode="A" horiz-adv-x="1452" d="M-96 0l16 82h152l770 1352h94l242 -1352h153l-16 -82h-418l16 82h174l-73 414h-608l-236 -414h174l-16 -82h-424zM453 578h546l-118 669l-7 53q-2 8 -2 25h-4q-2 -8 -10 -25q-16 -39 -24 -53z" />
<glyph unicode="B" horiz-adv-x="1359" d="M-4 0l16 82h193l248 1270h-195l16 82h629q139 0 227 -52q55 -33 88 -101.5t33 -154.5q0 -131 -70.5 -227t-185.5 -141v-4q178 -66 179 -289q0 -133 -67 -242.5t-173 -167.5q-102 -55 -250 -55h-688zM293 82h379q139 0 229 55q78 47 129 135t51 189q0 121 -69.5 186.5 t-192.5 65.5h-403zM432 795h389q139 0 238.5 92t99.5 241q0 127 -88 183q-66 41 -168 41h-362z" />
<glyph unicode="C" horiz-adv-x="1525" d="M137 594q0 176 73 338t192.5 275.5t277.5 182t321 68.5q70 0 149 -12t166 -40t135 -88.5t32 -141.5l-27 -138h-90l23 123q12 57 -24 101.5t-101.5 67t-133 33.5t-131.5 11q-199 0 -376 -102.5t-285.5 -281.5t-108.5 -388q0 -242 143.5 -392.5t377.5 -150.5 q70 0 146.5 13.5t151 38t128 68.5t65.5 100l23 112h90l-27 -133q-18 -96 -120.5 -162.5t-221.5 -93.5t-233 -27q-279 0 -447 172.5t-168 446.5z" />
<glyph unicode="D" horiz-adv-x="1587" d="M-4 0l16 82h193l248 1270h-195l16 82h586q186 0 322 -50q311 -123 311 -512q0 -248 -125 -463.5t-332 -320.5q-170 -88 -415 -88h-625zM291 82h311q221 0 383 78q186 96 301 287.5t115 416.5q0 334 -254 439q-119 49 -297 49h-309z" />
<glyph unicode="E" horiz-adv-x="1263" d="M-4 0l16 82h193l248 1270h-195l16 82h990l-54 -267h-86l37 185h-620l-115 -588h571l-16 -82h-571l-117 -600h661l39 197h86l-55 -279h-1028z" />
<glyph unicode="F" horiz-adv-x="1146" d="M-4 0l16 82h193l248 1270h-195l16 82h938l-55 -277h-86l39 195h-569l-117 -598h549l-17 -82h-548l-115 -590h205l-17 -82h-485z" />
<glyph unicode="G" horiz-adv-x="1579" d="M137 590q0 354 254 611t615 257q203 0 365.5 -77.5t139.5 -204.5l-26 -138h-90l20 109q14 74 -52.5 128t-161.5 76.5t-193 22.5q-317 0 -548 -231.5t-231 -544.5q0 -240 151.5 -389.5t393.5 -149.5q96 0 198.5 19.5t200 76t111.5 140.5l51 256h-317l16 82h406l-70 -354 q-14 -80 -79.5 -142.5t-156 -95.5t-182.5 -49.5t-178 -16.5q-293 0 -465 169.5t-172 445.5z" />
<glyph unicode="H" horiz-adv-x="1699" d="M-4 0l16 82h193l248 1270h-195l16 82h478l-17 -82h-194l-115 -592h909l115 592h-195l17 82h477l-16 -82h-195l-248 -1270h195l-17 -82h-477l17 82h194l117 596h-909l-117 -596h194l-16 -82h-475z" />
<glyph unicode="I" horiz-adv-x="702" d="M-4 0l16 82h193l248 1270h-195l16 82h478l-17 -82h-194l-248 -1270h194l-16 -82h-475z" />
<glyph unicode="J" horiz-adv-x="1091" d="M12 285q0 41 13 102q8 33 10 49h88q-2 -18 -10 -45q-10 -51 -11 -92q0 -240 238 -240q121 0 223.5 79t136.5 253l185 961h-228l17 82h489l-16 -82h-174l-189 -973q-41 -209 -165.5 -306.5t-278.5 -97.5q-141 0 -234.5 76t-93.5 234z" />
<glyph unicode="K" horiz-adv-x="1325" d="M-4 0l16 82h193l248 1270h-195l16 82h478l-17 -82h-194l-109 -557h221l496 557h-139l16 82h408l-17 -82h-151l-535 -594v-4l14 -15q10 -12 31 -57l211 -512q14 -31 24.5 -47.5t36 -30.5t64.5 -14q25 0 39 2q6 2 18 2l-16 -82q-12 0 -18 -2q-14 -2 -41 -2q-86 0 -126 41 t-79 133l-193 475q-14 37 -36.5 52.5t-69.5 15.5h-174l-123 -631h194l-16 -82h-475z" />
<glyph unicode="L" horiz-adv-x="1181" d="M-4 0l16 82h193l248 1270h-195l16 82h478l-17 -82h-194l-248 -1270h639l49 246h86l-66 -328h-1005z" />
<glyph unicode="M" horiz-adv-x="1904" d="M-39 0l16 82h193l348 1270h-196l16 82h285l266 -996q6 -18 10 -47l4 -20h4l11 20q4 8 14 23.5t14 23.5l656 996h292l-16 -82h-197l-147 -1270h195l-17 -82h-477l16 82h195l129 1110q4 39 10 55l8 31h-4q-8 -20 -14 -31q-14 -31 -29 -49l-610 -922h-90l-254 922l-8 49 q-2 10 -2 31h-4l-5 -31q-4 -37 -10 -55l-305 -1110h195l-17 -82h-475z" />
<glyph unicode="N" horiz-adv-x="1687" d="M-4 0l16 82h193l248 1270h-195l16 82h273l651 -1231q4 -8 10 -25.5t9 -19.5l8 -25h4q0 18 2 29q6 45 8 51l223 1139h-194l16 82h477l-16 -82h-195l-264 -1352h-80l-653 1233l-18 45l-7 25h-4q0 -18 -2 -29q-6 -45 -8 -51l-221 -1141h194l-16 -82h-475z" />
<glyph unicode="O" horiz-adv-x="1697" d="M135 590q0 229 125 431t328 319.5t424 117.5q266 0 433 -168t167 -430q0 -176 -75 -341t-196.5 -282.5t-281.5 -189.5t-324 -72q-264 0 -432 172.5t-168 442.5zM227 590q0 -233 144.5 -382t373.5 -149q190 0 369.5 107.5t292.5 294t113 397.5q0 227 -144.5 371.5 t-374.5 144.5q-195 0 -372.5 -105.5t-289.5 -287.5t-112 -391z" />
<glyph unicode="P" horiz-adv-x="1302" d="M-4 0l16 82h193l248 1270h-195l16 82h639q127 0 201 -29q190 -74 191 -311q0 -147 -80 -274.5t-209 -184.5q-96 -41 -230 -41h-393l-100 -512h194l-16 -82h-475zM410 676h368q109 0 199 35q106 45 170.5 146t64.5 228q0 176 -129 236q-63 31 -186 31h-356z" />
<glyph unicode="Q" horiz-adv-x="1697" d="M135 590q0 227 125 430t325.5 320.5t415.5 117.5q270 0 440.5 -167t170.5 -431q0 -186 -80 -355t-219 -296l141 -186l-61 -54l-144 189q-233 -182 -503.5 -182.5t-440.5 172t-170 442.5zM227 590q0 -233 144.5 -382t373.5 -149q244 0 455 166l-180 238l61 53l181 -240 q121 115 189.5 265.5t68.5 316.5q0 227 -144.5 371.5t-374.5 144.5q-195 0 -372.5 -105.5t-289.5 -287.5t-112 -391z" />
<glyph unicode="R" horiz-adv-x="1386" d="M-4 0l16 82h193l248 1270h-195l16 82h594q180 0 273 -54q137 -82 137 -270q0 -184 -123 -315t-305 -152v-4l12 -18l17 -33l165 -418q14 -33 24.5 -48.5t36 -29.5t64.5 -14q25 0 39 2q6 2 19 2l-17 -82q-12 0 -18 -2q-14 -2 -43 -2q-45 0 -78 11t-55.5 39t-34.5 51.5 t-33 72.5l-147 371q-23 59 -55.5 76.5t-96.5 17.5h-248l-108 -553h194l-16 -82h-475zM418 717h379q156 0 272.5 110.5t116.5 274.5q0 143 -103 207q-76 43 -231 43h-311z" />
<glyph unicode="S" horiz-adv-x="1148" d="M78 254l24 129h91l-25 -123q-18 -100 77 -150.5t236 -50.5q168 0 287 94.5t119 249.5q0 106 -66.5 173t-161.5 103l-189 74q-95 38 -161.5 112.5t-66.5 191.5q0 180 147.5 290.5t355.5 110.5q141 0 257 -60.5t98 -158.5l-27 -129h-90l21 107q14 80 -73 118.5t-200 38.5 q-162 0 -277.5 -88t-115.5 -225q0 -80 48 -137.5t120 -85.5l154 -64q83 -35 155 -71.5t120 -110.5t48 -178q0 -190 -150.5 -314.5t-363.5 -124.5q-72 0 -140.5 14.5t-133 44t-98 87t-19.5 133.5z" />
<glyph unicode="T" horiz-adv-x="1316" d="M164 1110l63 324h1178l-64 -324h-86l48 242h-459l-248 -1270h195l-17 -82h-477l16 82h195l248 1270h-459l-47 -242h-86z" />
<glyph unicode="U" horiz-adv-x="1613" d="M221 1352l17 82h477l-17 -82h-194l-158 -811q-18 -92 -18 -158q0 -150 98 -237t274 -87q197 0 330 101q158 117 201 342l168 850h-195l17 82h477l-17 -82h-194l-172 -871q-53 -270 -246 -399q-156 -106 -373 -107q-209 0 -333.5 110t-124.5 288q0 88 20 170l158 809h-195 z" />
<glyph unicode="V" horiz-adv-x="1423" d="M168 1352l16 82h416l-16 -82h-170l188 -1174q6 -27 6 -53v-25h6q2 8 11 25l24 53l647 1174h-170l17 82h422l-17 -82h-153l-750 -1352h-102l-221 1352h-154z" />
<glyph unicode="W" horiz-adv-x="2023" d="M180 1352l17 82h413l-16 -82h-172l63 -1162v-53q0 -16 -2 -24h6q2 8 11 24l24 53l598 1244h97l114 -1244q2 -18 2 -53v-24h6q2 8 11 24q2 6 9 25l11 28l514 1162h-172l17 82h421l-16 -82h-151l-611 -1352h-110l-113 1227q-2 18 -2 53q0 16 2 25h-6q-4 -16 -8 -25 q-2 -6 -10 -25l-11 -28l-592 -1227h-110l-82 1352h-152z" />
<glyph unicode="X" horiz-adv-x="1280" d="M-68 0l17 82h149l508 643l-256 627h-141l16 82h410l-17 -82h-174l213 -523l7 -18q4 -12 8 -18q4 -12 4 -15h4l8 17q4 6 13.5 17t13.5 17l407 523h-166l17 82h422l-17 -82h-149l-516 -654l254 -616h149l-16 -82h-410l17 82h165l-210 512l-7 18q-4 12 -8 19q-4 12 -4 14h-4 q0 -2 -10 -16l-25 -35l-399 -512h166l-17 -82h-422z" />
<glyph unicode="Y" horiz-adv-x="1302" d="M168 1352l16 82h414l-16 -82h-170l237 -588q2 -6 6 -16.5t7 -16.5q4 -12 4 -18h4q2 6 12 16l27 35l469 588h-170l16 82h420l-17 -82h-145l-582 -729l-106 -541h194l-16 -82h-477l16 82h195l106 541l-299 729h-145z" />
<glyph unicode="Z" horiz-adv-x="1259" d="M8 0l15 70l1056 1214l49 49l21 19v4q-14 0 -23 -2q-14 -2 -55 -2h-704l-48 -242h-86l64 324h983l-14 -70l-1059 -1214l-49 -50l-21 -18v-4q16 0 25 2q14 2 53 2h733l49 246h86l-65 -328h-1010z" />
<glyph unicode="[" horiz-adv-x="575" d="M68 -195l325 1680h221l-16 -82h-133l-293 -1516h133l-16 -82h-221z" />
<glyph unicode="\" horiz-adv-x="808" d="M281 1516h86l204 -1602h-86z" />
<glyph unicode="]" horiz-adv-x="573" d="M-23 -195l17 82h133l293 1516h-133l16 82h221l-325 -1680h-222z" />
<glyph unicode="^" d="M39 516l403 918h66l403 -918h-94l-342 795l-342 -795h-94z" />
<glyph unicode="_" horiz-adv-x="1099" d="M-90 -82l14 82h1016l-14 -82h-1016z" />
<glyph unicode="`" horiz-adv-x="1042" d="M266 1763h127l148 -227h-107z" />
<glyph unicode="a" horiz-adv-x="1095" d="M16 227q0 82 32 146.5t88.5 106.5t124 72t150.5 45t156.5 21.5t151.5 6.5h80q8 39 10 51q8 41 8 80q0 100 -51 154.5t-178 54.5q-111 0 -221 -50q-47 -20 -88 -49l-37 78q47 33 98 53q123 51 258 52q309 0 309 -277q0 -66 -55 -311.5t-55 -284.5q0 -63 27.5 -81.5 t74.5 -18.5q37 0 43 2t12 2l-16 -80q-16 0 -25 -2q-15 -2 -39 -2q-92 0 -135 56q-31 41 -31 105q0 24 5 52h-4q2 0 -14.5 -23.5t-49.5 -58.5t-78 -69.5t-111.5 -58.5t-136.5 -24q-131 0 -217 68.5t-86 183.5zM106 240q0 -78 56.5 -131.5t167.5 -53.5q154 0 277.5 136.5 t164.5 302.5l12 51h-65q-613 0 -613 -305z" />
<glyph unicode="b" horiz-adv-x="1204" d="M80 0l262 1354h-195l17 80h280l-100 -523l-18 -65l-11 -29h4q57 102 165 167t231 65q178 0 275 -107.5t97 -296.5q0 -289 -166.5 -479.5t-390.5 -190.5q-125 0 -212 60.5t-117 171.5h-4q0 -20 -2 -31q-8 -66 -9 -70l-20 -106h-86zM250 377q0 -139 70.5 -228.5 t209.5 -89.5q178 0 322.5 162t144.5 420q0 152 -74.5 238t-207.5 86q-205 0 -335 -182.5t-130 -405.5z" />
<glyph unicode="c" horiz-adv-x="1116" d="M80 418q0 264 196.5 447.5t444.5 183.5q74 0 147.5 -19.5t129 -70t42.5 -121.5l-18 -101h-86l14 80q10 72 -69.5 110t-175.5 38q-199 0 -367 -158t-168 -385q0 -172 102.5 -267.5t264.5 -95.5q143 0 268 74q55 33 100 74l33 -78q-51 -43 -109 -76q-143 -78 -297 -78 q-201 0 -326.5 118t-125.5 325z" />
<glyph unicode="d" horiz-adv-x="1249" d="M82 379q0 289 167 479.5t390 190.5q123 0 211 -59.5t119 -172.5h4q0 18 2 29q6 59 8 65l86 443h-195l17 80h280l-233 -1198q-6 -37 -6 -60q0 -63 27.5 -81.5t74.5 -18.5q37 0 43 2t13 2l-17 -80q-16 0 -24 -2q-14 -2 -39 -2q-92 0 -137 56q-29 37 -29 92q0 28 8 61h-4 q-53 -94 -158.5 -162t-232.5 -68q-182 0 -278.5 108t-96.5 296zM172 383q0 -152 75 -238t210 -86q137 0 245.5 92.5t163 224.5t54.5 271q0 137 -71 227.5t-210 90.5q-178 0 -322.5 -162t-144.5 -420z" />
<glyph unicode="e" horiz-adv-x="1126" d="M80 403q0 254 173 450t429 196q174 0 262 -99.5t88 -263.5q0 -47 -12 -108q-6 -33 -14 -52h-822l-6 -32q-6 -31 -6 -80q0 -156 94 -255.5t266 -99.5q117 0 244 66q43 23 98 63l33 -77q-47 -35 -108 -68q-131 -68 -271 -68q-199 0 -323.5 115.5t-124.5 312.5zM205 606h727 l4 25q4 33 4 61q0 137 -72.5 207t-191.5 70q-147 0 -279.5 -95.5t-191.5 -267.5z" />
<glyph unicode="f" horiz-adv-x="632" d="M113 944l14 80h192l11 45q23 117 74 198t113.5 114.5t109.5 46t92 12.5q37 0 47 -2q6 -2 16 -2l-18 -80q-6 0 -12.5 2t-32.5 2q-236 0 -301 -289l-10 -47h272l-14 -80h-273l-182 -944h-88l182 944h-192z" />
<glyph unicode="g" horiz-adv-x="1224" d="M20 -350l50 71q25 -16 77 -34q98 -33 189 -33q403 0 469 409q12 74 24 111l13 35h-4q-131 -209 -365 -209q-178 0 -282.5 108.5t-104.5 292.5q0 111 36 222.5t100.5 208t170 157t230.5 60.5t218 -48.5t120 -152.5h4q-2 2 -2 12q0 2 4 39q12 68 44.5 96.5t98.5 28.5h152 l-15 -80h-139q-47 0 -55 -45l-174 -903q-43 -219 -190.5 -322.5t-342.5 -103.5q-176 0 -326 80zM176 403q0 -152 79 -235.5t220 -83.5t244.5 99.5t148.5 233.5t45 273q0 274 -286 275q-205 0 -328 -172.5t-123 -389.5z" />
<glyph unicode="h" horiz-adv-x="1255" d="M80 0l262 1354h-184l16 80h270l-110 -580q-6 -33 -17 -66l-10 -28h4q51 100 180.5 194.5t290.5 94.5q139 0 210 -67t71 -191q0 -68 -51 -324t-51 -291q0 -45 17 -68.5t35.5 -27.5t49.5 -4q35 0 41 2t14 2l-16 -80q-16 0 -25 -2q-14 -2 -39 -2q-61 0 -114.5 35t-53.5 125 q0 37 51.5 293t51.5 323q0 96 -51.5 144.5t-141.5 48.5q-186 0 -335.5 -142.5t-186.5 -343.5l-92 -479h-86z" />
<glyph unicode="i" horiz-adv-x="557" d="M100 944l17 80h280l-155 -788q-6 -37 -6 -60q0 -63 27.5 -81.5t74.5 -18.5q37 0 43 2t12 2l-16 -80q-16 0 -25 -2q-14 -2 -39 -2q-27 0 -51 6t-53 21.5t-46.5 51.5t-17.5 87q0 31 9 61l141 721h-195zM348 1284l31 150h110l-30 -150h-111z" />
<glyph unicode="j" horiz-adv-x="522" d="M-248 -416l17 80q6 0 12 -2t33 -2q37 0 74.5 10.5t84.5 38t86 92t56 156.5l190 987h-194l16 80h281l-207 -1065q-23 -119 -71 -201t-107.5 -117.5t-105.5 -48t-93 -12.5q-37 0 -51 2q-7 2 -21 2zM358 1284l29 150h111l-29 -150h-111z" />
<glyph unicode="k" horiz-adv-x="1048" d="M78 0l266 1354h-194l16 80h280l-159 -813h151l353 323h-150l16 80h404l-17 -80h-135l-393 -362v-4l16 -15q14 -14 33 -55l154 -340q14 -31 24.5 -47.5t36 -30.5t64.5 -14q25 0 39 2q6 2 18 2l-16 -80q-12 0 -19 -2q-14 -2 -41 -2q-43 0 -73.5 11t-55 40t-37 50.5 t-36.5 72.5l-150 326q-12 29 -32.5 37t-63.5 8h-105l-108 -541h-86z" />
<glyph unicode="l" horiz-adv-x="524" d="M117 162q0 33 8 63l219 1129h-194l16 80h280l-231 -1196q-8 -31 -8 -64q0 -43 17.5 -66.5t36 -27.5t48.5 -4q37 0 43 2t13 2l-17 -80q-14 0 -20 -2q-14 -2 -43 -2q-27 0 -51.5 6t-53 21.5t-46 51.5t-17.5 87z" />
<glyph unicode="m" horiz-adv-x="1988" d="M111 944l16 80h162q57 0 78.5 -19.5t21.5 -62.5q0 -23 -13.5 -86t-27.5 -96h4q66 123 192 206t259 83q145 0 206.5 -71t61.5 -208h4q61 121 184 200t257 79q139 0 210.5 -69t71.5 -192q0 -66 -51 -320.5t-51 -291.5q0 -45 17.5 -68.5t35.5 -27.5t49 -4q35 0 41 2t14 2 l-16 -80q-16 0 -25 -2q-14 -2 -38 -2q-61 0 -114.5 35t-53.5 125q0 39 51 295t51 317q0 96 -47 148.5t-158 52.5q-172 0 -304 -145.5t-169 -323.5l-96 -500h-86l119 618q18 100 18 156q0 92 -44 143.5t-153 51.5q-170 0 -309 -144.5t-174 -326.5l-96 -498h-86l174 899 q2 8 2 15q0 30 -39 30h-149z" />
<glyph unicode="n" horiz-adv-x="1298" d="M111 944l16 80h162q57 0 78.5 -19.5t21.5 -62.5q0 -23 -13.5 -86t-27.5 -96h4q53 104 181.5 196.5t297.5 92.5q135 0 205 -67t70 -189q0 -68 -51 -324t-51 -293q0 -45 17 -68.5t35.5 -27.5t49.5 -4q35 0 41 2t14 2l-16 -80q-16 0 -25 -2q-14 -2 -39 -2q-61 0 -114.5 35 t-53.5 125q0 37 51.5 293t51.5 323q0 193 -197 193q-180 0 -330.5 -143.5t-187.5 -342.5l-92 -479h-86l174 899q2 8 2 15q0 30 -39 30h-149z" />
<glyph unicode="o" horiz-adv-x="1273" d="M80 420q0 258 192.5 443.5t444.5 185.5q197 0 319.5 -123t122.5 -316q0 -258 -193.5 -446.5t-443.5 -188.5q-197 0 -319.5 125t-122.5 320zM170 422q0 -160 100.5 -261.5t261.5 -101.5q207 0 372 163t165 386q0 156 -101.5 256.5t-260.5 100.5q-209 0 -373 -161 t-164 -382z" />
<glyph unicode="p" horiz-adv-x="1249" d="M41 -410l256 1309q2 8 2 15q0 30 -39 30h-149l16 80h162q57 0 78.5 -20.5t21.5 -61.5q0 -37 -29 -123h5q57 98 158.5 164t234.5 66q180 0 277.5 -107.5t97.5 -296.5q0 -287 -167 -478.5t-386 -191.5q-125 0 -214.5 59.5t-119.5 172.5h-4q0 -20 -2 -31q-6 -49 -11 -70 l-102 -516h-86zM295 383q0 -139 72.5 -231.5t207.5 -92.5q178 0 322.5 162t144.5 420q0 152 -74.5 238t-209.5 86q-203 0 -333 -182.5t-130 -399.5z" />
<glyph unicode="q" horiz-adv-x="1204" d="M82 377q0 289 168 480.5t391 191.5q123 0 210 -59.5t118 -170.5h4q0 14 2 23q0 4 1 15t3 23l4 21l23 123h86l-265 -1356h195l-16 -78h-281l102 516q10 47 19 70l10 31h-4q-59 -100 -159.5 -166t-235.5 -66q-180 0 -277.5 107t-97.5 295zM172 383q0 -152 76 -238t209 -86 q205 0 335 184.5t130 403.5q0 137 -71 227.5t-210 90.5q-178 0 -323.5 -162t-145.5 -420z" />
<glyph unicode="r" horiz-adv-x="729" d="M111 944l16 80h162q57 0 78.5 -19.5t21.5 -62.5q0 -55 -45 -197h4q59 125 157.5 206t223.5 81q29 0 62 -6l-19 -86q-33 4 -45 4q-90 0 -169 -56.5t-132 -144.5t-88 -177t-53 -175l-76 -391h-86l174 899q2 8 2 15q0 30 -39 30h-149z" />
<glyph unicode="s" horiz-adv-x="946" d="M27 207l18 98h86l-16 -88q-10 -49 16.5 -83t74.5 -48t91 -20.5t86 -6.5q121 0 213 56.5t92 154.5q0 68 -53 115t-128 77l-150 61q-75 32 -128 90.5t-53 140.5q0 133 117 214t274 81q131 0 217 -54.5t68 -144.5l-23 -109h-86l21 99q14 68 -55.5 96.5t-161.5 28.5 q-106 0 -193.5 -53.5t-87.5 -147.5q0 -63 53.5 -109.5t127.5 -75.5l150 -63q75 -33 128 -90t53 -137q0 -133 -112.5 -223.5t-298.5 -90.5q-147 0 -255 60.5t-85 171.5z" />
<glyph unicode="t" horiz-adv-x="636" d="M94 944l17 80h194l55 285h86l-55 -285h268l-16 -80h-268l-109 -567q-10 -49 -10 -101q0 -205 182 -204q37 0 43 2t17 2l-17 -80q-6 0 -12 -2t-31 -2q-268 0 -268 280q0 51 12 119l107 553h-195z" />
<glyph unicode="u" horiz-adv-x="1300" d="M96 944l15 80h280l-119 -614q-20 -84 -20 -164q0 -186 201 -187q182 0 327.5 150.5t180.5 339.5l75 395h-192l14 80h281l-154 -788q-6 -37 -6 -60q0 -63 27.5 -81.5t74.5 -18.5q37 0 43 2t13 2l-17 -80q-16 0 -24 -2q-14 -2 -39 -2q-113 0 -148 73q-18 39 -18 86 q0 42 14 93h-4q-59 -98 -177 -185.5t-286 -87.5q-121 0 -197.5 62.5t-76.5 195.5q0 53 16 142l109 569h-193z" />
<glyph unicode="v" horiz-adv-x="1126" d="M86 944l14 80h389l-14 -80h-162l144 -766q6 -14 6 -45v-20h4q6 16 8 20l23 45l442 766h-162l15 80h397l-14 -80h-140l-549 -944h-81l-181 944h-139z" />
<glyph unicode="w" horiz-adv-x="1732" d="M88 944l14 80h390l-15 -80h-166l99 -772q2 -14 2 -45v-21h4l8 21q16 37 20 45l453 848h94l121 -848q4 -29 4 -45v-21h4l8 21q2 2 8.5 19.5t10.5 25.5l401 772h-166l15 80h397l-14 -80h-135l-500 -944h-86l-125 842l-4 45q-2 6 -2 22h-4q-4 -16 -9 -22l-22 -45l-453 -842 h-86l-131 944h-135z" />
<glyph unicode="x" horiz-adv-x="1083" d="M-63 0l14 80h162l364 459l-147 366q-12 25 -20.5 32t-30.5 7h-148l14 80h168q37 0 52.5 -14.5t33.5 -57.5l121 -299q2 -6 5 -17t7 -18l7 -16h4q0 2 10 16q16 25 27 37l290 369h232l-15 -80h-178l-336 -416l148 -360q20 -47 48 -69.5t89 -22.5q37 0 51 2q6 2 21 2l-17 -80 q-14 0 -22 -2q-14 -2 -49 -2q-94 0 -136 42t-77 132l-97 246q-2 6 -5 17t-7 18l-6 16h-4l-10 -14l-27 -39l-323 -414h-213z" />
<glyph unicode="y" horiz-adv-x="1150" d="M-94 -375l49 70q12 -12 33 -23q45 -20 86 -20q125 0 239 184l103 168l-191 940h-139l16 80h392l-17 -80h-162l154 -780q4 -10 4 -41v-17h4l8 17l23 41l457 780h-162l16 80h400l-17 -80h-141l-688 -1159q-131 -215 -303 -215q-74 0 -123 27q-21 12 -41 28z" />
<glyph unicode="z" horiz-adv-x="1038" d="M-20 0l12 70l766 780q86 94 96 94v4q-16 0 -27 -2q-16 -2 -75 -2h-467l-37 -194h-84l53 274h776l-14 -70l-768 -780l-46 -45q-24 -23 -38 -35l-14 -14v-4q16 0 26 2q18 2 78 2h524l39 194h84l-53 -274h-831z" />
<glyph unicode="{" horiz-adv-x="624" d="M82 616l16 82q47 8 95 39q98 66 126 205l33 166q20 102 58.5 177t76 112t88 57.5t80 24.5t66.5 4l-14 -80q-29 0 -57.5 -7t-73 -33t-81 -90.5t-55.5 -162.5l-37 -190q-29 -135 -122 -213q-35 -31 -91 -48v-4q35 -18 60 -47q57 -61 57 -155q0 -27 -6 -58l-43 -217 q-12 -61 -12 -106q0 -186 166 -187l-17 -80q0 -2 -4 -2h-14q-27 0 -56.5 8.5t-70.5 32t-66.5 78.5t-25.5 135q0 41 14 123l37 193q6 37 6 65q0 98 -65 148q-27 20 -68 30z" />
<glyph unicode="|" horiz-adv-x="624" d="M276 -317v1925h89v-1925h-89z" />
<glyph unicode="}" horiz-adv-x="626" d="M-78 -197l15 82q209 0 266 293l41 215q27 141 123 219q41 35 90 47v5q-31 16 -58 47q-57 61 -57 149q0 27 6 57l37 193q12 61 12 107q0 186 -166 186l17 80q29 2 63.5 -4t76.5 -29t69.5 -79t27.5 -140q0 -41 -14 -123l-33 -168q-6 -37 -6 -66q0 -96 68 -147 q27 -20 65 -31l-16 -82q-47 -8 -94 -39q-98 -66 -127 -204l-37 -191q-20 -102 -57 -177t-77 -114t-87 -59t-81 -24.5t-67 -2.5z" />
<glyph unicode="~" horiz-adv-x="1202" d="M152 436q0 152 64.5 223.5t170.5 71.5q63 0 113.5 -23.5t82.5 -56.5l61 -65q30 -33 72 -56.5t93 -23.5q63 0 100 43t45.5 85t8.5 89h81q0 -152 -64.5 -223.5t-170.5 -71.5q-63 0 -113.5 23.5t-82.5 56.5l-61 65q-30 33 -72 56.5t-93 23.5q-63 0 -100 -43t-45.5 -85 t-8.5 -89h-81z" />
<glyph unicode="&#xa1;" horiz-adv-x="436" d="M-23 -410l211 1076h88l-210 -1076h-89zM215 899l27 125h120l-26 -125h-121z" />
<glyph unicode="&#xa2;" horiz-adv-x="1116" d="M115 569q0 162 61.5 320t192.5 273.5t303 123.5l33 172h88l-35 -174q170 -20 264 -156q43 -61 57 -131l-82 -32q-16 66 -53 118q-86 119 -239 119q-225 0 -360.5 -185.5t-135.5 -447.5q0 -154 75.5 -246t231.5 -92q154 0 281 119q51 49 98 119l80 -33q-43 -72 -111 -139 q-145 -141 -327 -152l-33 -172h-88l33 174q-158 18 -246 128t-88 294z" />
<glyph unicode="&#xa3;" horiz-adv-x="1234" d="M-14 0l16 82h184l117 600h-135l16 82h133l68 342q31 147 158 249.5t297 102.5q123 0 221 -53q39 -18 76 -53l-68 -62q-27 23 -59 41q-72 41 -170 41q-145 0 -246.5 -83t-122.5 -202l-63 -323h405l-16 -82h-406l-117 -600h668l49 246h86l-63 -328h-1028z" />
<glyph unicode="&#xa5;" horiz-adv-x="1265" d="M219 455l14 82h334l19 86l-41 98h-275l17 82h225l-256 631h96l226 -566q6 -14 19 -51t21 -55l21 -55h4q12 20 37 53l80 106l448 568h109l-502 -631h221l-16 -82h-270l-76 -98l-19 -86h328l-14 -82h-328l-90 -455h-88l90 455h-334z" />
<glyph unicode="&#xa7;" horiz-adv-x="778" d="M-2 -57l61 61q16 -16 35 -24q35 -23 96 -23q119 0 198 79t83 195l57 973h86l-53 -968q-8 -154 -110.5 -258.5t-262.5 -104.5q-80 0 -141 35q-24 15 -49 35zM193 127l53 969q8 154 110.5 258t261.5 104q80 0 142 -35q25 -14 49 -34l-61 -62q-16 16 -35 25q-35 23 -97 22 q-121 0 -196.5 -77.5t-83.5 -196.5l-57 -973h-86z" />
<glyph unicode="&#xa8;" horiz-adv-x="1042" d="M174 1614l31 149h110l-30 -149h-111zM518 1614l31 149h110l-30 -149h-111z" />
<glyph unicode="&#xa9;" horiz-adv-x="1689" d="M143 717q0 311 210 526t511 215q303 0 516 -215t213 -526t-213 -526.5t-516 -215.5q-301 0 -511 215.5t-210 526.5zM236 717q0 -279 181 -467.5t447 -188.5q270 0 453.5 188.5t183.5 467.5q0 276 -183 465.5t-454 189.5q-266 0 -447 -189.5t-181 -465.5zM449 715 q0 174 116.5 303t323.5 129q137 0 248 -90q55 -41 86 -90l-68 -60q-37 49 -70 76q-92 76 -194 76q-166 0 -258 -101.5t-92 -240.5t92 -240.5t258 -101.5q104 0 196 76q37 31 68 75l68 -59q-35 -49 -88 -90q-111 -90 -246 -90q-207 0 -323.5 127t-116.5 301z" />
<glyph unicode="&#xaa;" horiz-adv-x="884" d="M168 539l14 75h518l-14 -75h-518zM254 950q0 84 49 139.5t130 77t136.5 27.5t116.5 6h43l2 10q6 28 6 52q0 44 -20 72q-31 44 -109 44q-61 0 -131 -28q-29 -10 -57 -31l-35 65q31 20 66 35q78 35 159 35q207 0 207 -184q0 -37 -10 -82l-78 -393h-80l21 104h-4 q-25 -33 -58 -57q-76 -59 -159 -60q-76 0 -135.5 42t-59.5 126zM342 956q0 -98 123 -98q86 0 157.5 88t92.5 180h-27q-346 0 -346 -170z" />
<glyph unicode="&#xab;" horiz-adv-x="1005" d="M104 584l394 415h116l-407 -426l258 -415h-98zM422 584l418 415h116l-432 -426l258 -415h-98z" />
<glyph unicode="&#xac;" horiz-adv-x="1296" d="M184 702v82h934v-448h-86v366h-848z" />
<glyph unicode="&#xad;" horiz-adv-x="1079" d="M244 539l14 82h565l-14 -82h-565z" />
<glyph unicode="&#xae;" horiz-adv-x="1689" d="M143 717q0 311 210 526t511 215q303 0 516 -215t213 -526t-213 -526.5t-516 -215.5q-301 0 -511 215.5t-210 526.5zM236 717q0 -279 181 -467.5t447 -188.5q270 0 453.5 188.5t183.5 467.5q0 276 -183 465.5t-454 189.5q-266 0 -447 -189.5t-181 -465.5zM627 307v819h272 q106 0 172 -64.5t66 -172.5q0 -88 -45 -144.5t-113 -74.5v-4l6 -11q8 -8 21 -34l161 -314h-100l-174 342h-176v-342h-90zM717 727h172q72 0 113.5 43t41.5 119q0 74 -41.5 114.5t-113.5 40.5h-172v-317z" />
<glyph unicode="&#xaf;" horiz-adv-x="1042" d="M164 1610l14 82h490l-15 -82h-489z" />
<glyph unicode="&#xb0;" horiz-adv-x="761" d="M219 1149q0 117 97.5 211t215.5 94q102 0 167 -64.5t65 -164.5q0 -121 -96.5 -213t-214.5 -92q-104 0 -169 64.5t-65 164.5zM307 1149q0 -63 41 -105.5t109 -42.5q88 0 153.5 67t65.5 157q0 63 -41 105t-107 42q-86 0 -153.5 -67.5t-67.5 -155.5z" />
<glyph unicode="&#xb1;" d="M82 539v82h485v538h88v-538h484v-82h-484v-539h-88v539h-485zM123 -231h975v-82h-975v82z" />
<glyph unicode="&#xb2;" horiz-adv-x="729" d="M137 866q4 80 38 145.5t85 111.5t112.5 87t123 77t111.5 74t81 88t31 110q0 61 -42 102t-114 41q-74 0 -149 -51q-33 -20 -64 -52l-43 58q27 27 74 59q90 59 184 60q117 0 175.5 -58.5t58.5 -154.5q0 -92 -51.5 -164t-127.5 -120l-156 -93q-79 -45 -145.5 -107.5 t-87.5 -138.5h394l22 117h78l-37 -191h-551z" />
<glyph unicode="&#xb3;" horiz-adv-x="741" d="M139 979l62 49q25 -31 59 -53q80 -55 168 -55q92 0 167 71.5t75 171.5q0 74 -55.5 117t-131.5 43h-65l-15 49l285 273l35 28l14 10v5q-8 0 -14 -2q-29 -4 -41 -5h-279l-22 -116h-78l37 190h520l-10 -53l-322 -309q78 -6 150 -60.5t72 -169.5q0 -125 -97.5 -221 t-226.5 -96q-111 0 -213 67q-41 27 -74 66z" />
<glyph unicode="&#xb4;" horiz-adv-x="1042" d="M225 1536l238 227h139l-258 -227h-119z" />
<glyph unicode="&#xb5;" horiz-adv-x="1179" d="M-29 -410l279 1434h86l-119 -614q-18 -90 -18 -160q0 -190 202 -191q184 0 332 149.5t182 340.5l93 475h86l-199 -1024h-86l33 170l16 66l10 28h-4q-55 -104 -181 -196.5t-296 -92.5q-172 0 -240 109h-4l-6 -59q-2 -14 -5 -47t-7 -46l-68 -342h-86z" />
<glyph unicode="&#x3bc;" horiz-adv-x="1179" d="M-29 -410l279 1434h86l-119 -614q-18 -90 -18 -160q0 -190 202 -191q184 0 332 149.5t182 340.5l93 475h86l-199 -1024h-86l33 170l16 66l10 28h-4q-55 -104 -181 -196.5t-296 -92.5q-172 0 -240 109h-4l-6 -59q-2 -14 -5 -47t-7 -46l-68 -342h-86z" />
<glyph unicode="&#xb6;" horiz-adv-x="1136" d="M158 899q0 213 176 374t391 161h451l-15 -82h-342l-282 -1454h-86l114 596q-164 0 -285.5 116.5t-121.5 288.5zM664 -102l256 1325h86l-256 -1325h-86z" />
<glyph unicode="&#xb7;" horiz-adv-x="573" d="M207 520l24 129h125l-24 -129h-125z" />
<glyph unicode="&#xb8;" horiz-adv-x="1042" d="M217 -408l16 76l23 -6q29 -4 57 -4q127 0 127 88q0 66 -110 66h-25l92 225l64 -10l-2 -17l-51 -133q51 -8 84.5 -41t33.5 -90q0 -80 -64.5 -122t-146.5 -42q-39 0 -71 4z" />
<glyph unicode="&#xb9;" horiz-adv-x="626" d="M131 866l14 74h217l121 629l13 55l6 21h-4l-15 -17q-33 -31 -41 -39l-125 -104l-45 59l250 211h78l-160 -815h211l-14 -74h-506z" />
<glyph unicode="&#xba;" horiz-adv-x="985" d="M180 539l15 75h602l-15 -75h-602zM252 1061q0 160 122 277.5t275 117.5q127 0 204 -79t77 -197q0 -162 -122 -279t-278 -117q-127 0 -202.5 77t-75.5 200zM332 1067q0 -92 57 -149.5t150 -57.5q121 0 216 93.5t95 224.5q0 90 -58.5 146t-150.5 56q-119 0 -214 -93 t-95 -220z" />
<glyph unicode="&#xbb;" horiz-adv-x="1007" d="M43 158l432 426l-258 415h98l263 -426l-418 -415h-117zM385 158l408 426l-258 415h98l262 -426l-393 -415h-117z" />
<glyph unicode="&#xbc;" horiz-adv-x="1882" d="M115 545l14 73h217l121 629l12 56l6 20h-4l-14 -16q-33 -33 -41 -39l-125 -105l-45 60l250 211h78l-160 -816h211l-14 -73h-506zM416 0l966 1434h95l-965 -1434h-96zM1069 248l10 53l570 588h63l-110 -567h139l-15 -74h-139l-49 -248h-78l49 248h-440zM1192 322h332 l69 358q2 8 6.5 27.5t8.5 27.5l8 29h-4q-2 -2 -5 -6t-6.5 -9.5t-5.5 -7.5q-10 -14 -43 -47l-360 -368v-4z" />
<glyph unicode="&#xbd;" horiz-adv-x="1835" d="M98 545l15 73h217l121 629l12 56l6 20h-4l-14 -16q-33 -33 -41 -39l-125 -105l-45 60l249 211h78l-159 -816h210l-14 -73h-506zM399 0l967 1434h94l-964 -1434h-97zM1063 0q4 80 38 145.5t85 111.5t112.5 87t123 77t111.5 73.5t81 88t31 109.5q0 61 -42 102.5t-114 41.5 q-74 0 -150 -52q-33 -23 -63 -51l-43 58q27 27 74 59q90 59 184 59q117 0 175 -58t58 -155q0 -92 -51 -163.5t-128 -119.5l-155 -94q-79 -45 -145.5 -107t-87.5 -138h393l23 116h78l-37 -190h-551z" />
<glyph unicode="&#xbe;" horiz-adv-x="1923" d="M121 657l61 50q25 -31 60 -54q80 -55 168 -55q92 0 166.5 71.5t74.5 172.5q0 74 -55 116.5t-131 42.5h-66l-14 50l285 272l35 29l14 10v4q-8 0 -14 -2q-29 -4 -41 -4h-279l-23 -117h-77l37 191h520l-11 -54l-321 -309q78 -6 149.5 -60.5t71.5 -168.5q0 -125 -97 -221.5 t-226 -96.5q-113 0 -213 68q-41 26 -74 65zM449 0l966 1434h94l-964 -1434h-96zM1102 248l10 53l569 588h64l-111 -567h140l-15 -74h-139l-49 -248h-78l49 248h-440zM1225 322h331l70 358q2 8 6 27.5t8 27.5l9 29h-4q-2 -2 -5.5 -6t-6.5 -9.5t-5 -7.5q-10 -14 -43 -47 l-360 -368v-4z" />
<glyph unicode="&#xbf;" horiz-adv-x="911" d="M-14 -133q0 100 45 183t113.5 141.5t139 112.5t129 125t76.5 151l19 86h88l-18 -86q-20 -96 -80 -177t-128 -137l-136 -110q-67 -55 -110.5 -127t-43.5 -158q0 -94 67.5 -154.5t182.5 -60.5q98 0 196 43q41 18 82 43l35 -76q-45 -29 -94 -49q-111 -47 -223 -47 q-158 0 -249 82t-91 215zM532 899l27 125h121l-27 -125h-121z" />
<glyph unicode="&#xc0;" horiz-adv-x="1452" d="M-96 0l16 82h152l770 1352h94l242 -1352h153l-16 -82h-418l16 82h174l-73 414h-608l-236 -414h174l-16 -82h-424zM453 578h546l-118 669l-7 53q-2 8 -2 25h-4q-2 -8 -10 -25q-16 -39 -24 -53zM709 1763h127l147 -227h-106z" />
<glyph unicode="&#xc1;" horiz-adv-x="1452" d="M-96 0l16 82h152l770 1352h94l242 -1352h153l-16 -82h-418l16 82h174l-73 414h-608l-236 -414h174l-16 -82h-424zM453 578h546l-118 669l-7 53q-2 8 -2 25h-4q-2 -8 -10 -25q-16 -39 -24 -53zM827 1536l238 227h139l-258 -227h-119z" />
<glyph unicode="&#xc2;" horiz-adv-x="1452" d="M-96 0l16 82h152l770 1352h94l242 -1352h153l-16 -82h-418l16 82h174l-73 414h-608l-236 -414h174l-16 -82h-424zM453 578h546l-118 669l-7 53q-2 8 -2 25h-4q-2 -8 -10 -25q-16 -39 -24 -53zM678 1536l209 227h123l118 -227h-102l-82 164h-4l-147 -164h-115z" />
<glyph unicode="&#xc3;" horiz-adv-x="1452" d="M-96 0l16 82h152l770 1352h94l242 -1352h153l-16 -82h-418l16 82h174l-73 414h-608l-236 -414h174l-16 -82h-424zM453 578h546l-118 669l-7 53q-2 8 -2 25h-4q-2 -8 -10 -25q-16 -39 -24 -53zM623 1542q41 221 198 221q47 0 82 -23.5t50.5 -50t39 -50t51.5 -23.5 q12 0 22.5 3t19 10t15.5 14.5t13 18.5t10 19.5t9.5 21.5t7.5 19.5l6 19.5t4 15h90q-41 -221 -199 -221q-47 0 -81.5 22.5t-50 51t-39 51t-52.5 22.5q-76 0 -106 -141h-90z" />
<glyph unicode="&#xc4;" horiz-adv-x="1452" d="M-96 0l16 82h152l770 1352h94l242 -1352h153l-16 -82h-418l16 82h174l-73 414h-608l-236 -414h174l-16 -82h-424zM453 578h546l-118 669l-7 53q-2 8 -2 25h-4q-2 -8 -10 -25q-16 -39 -24 -53zM698 1614l31 149h111l-31 -149h-111zM1042 1614l31 149h111l-31 -149h-111z " />
<glyph unicode="&#xc5;" horiz-adv-x="1452" d="M-96 0l16 82h152l770 1352h94l242 -1352h153l-16 -82h-418l16 82h174l-73 414h-608l-236 -414h174l-16 -82h-424zM453 578h546l-118 669l-7 53q-2 8 -2 25h-4q-2 -8 -10 -25q-16 -39 -24 -53zM776 1632q0 70 54.5 121t121.5 51q61 0 100.5 -35.5t39.5 -95.5 q0 -68 -54.5 -120t-124.5 -52q-59 0 -98 37t-39 94zM858 1634q0 -57 60 -57q41 0 66.5 27.5t25.5 68.5q0 57 -62 58q-37 0 -63.5 -28t-26.5 -69z" />
<glyph unicode="&#xc6;" horiz-adv-x="1857" d="M-88 0l16 82h138l768 1270h-166l16 82h1174l-54 -267h-86l37 185h-620l-115 -588h571l-16 -82h-571l-117 -600h661l37 186h86l-53 -268h-1020l16 82h185l116 600h-391l-362 -600h166l-17 -82h-399zM575 764h357l115 588h-115z" />
<glyph unicode="&#xc7;" horiz-adv-x="1525" d="M137 594q0 176 73 338t192.5 275.5t277.5 182t321 68.5q70 0 149 -12t166 -40t135 -88q36 -45 36 -102q0 -19 -4 -40l-27 -138h-90l23 123q3 15 3 29q0 40 -27 73q-36 44 -101.5 66.5t-133 33.5t-131.5 11q-199 0 -376 -102.5t-285.5 -281.5t-108.5 -388 q0 -242 143.5 -392.5t377.5 -150.5q70 0 146.5 13.5t151 38t128 68.5t65.5 100l23 112h90l-27 -133q-18 -96 -120.5 -162.5t-221.5 -93.5t-233 -27h-7l-36 -98q51 -8 84.5 -41t33.5 -90q0 -80 -64.5 -122t-146.5 -42q-39 0 -71 4l-27 6l17 76l22 -6q29 -4 57 -4 q127 0 127 88q0 66 -110 66h-25l68 168q-248 25 -392.5 191.5t-144.5 422.5z" />
<glyph unicode="&#xc8;" horiz-adv-x="1263" d="M-4 0l16 82h193l248 1270h-195l16 82h990l-54 -267h-86l37 185h-620l-115 -588h571l-16 -82h-571l-117 -600h661l39 197h86l-55 -279h-1028zM621 1763h127l147 -227h-107z" />
<glyph unicode="&#xc9;" horiz-adv-x="1263" d="M-4 0l16 82h193l248 1270h-195l16 82h990l-54 -267h-86l37 185h-620l-115 -588h571l-16 -82h-571l-117 -600h661l39 197h86l-55 -279h-1028zM739 1536l238 227h139l-258 -227h-119z" />
<glyph unicode="&#xca;" horiz-adv-x="1263" d="M-4 0l16 82h193l248 1270h-195l16 82h990l-54 -267h-86l37 185h-620l-115 -588h571l-16 -82h-571l-117 -600h661l39 197h86l-55 -279h-1028zM590 1536l209 227h123l118 -227h-102l-82 164h-4l-147 -164h-115z" />
<glyph unicode="&#xcb;" horiz-adv-x="1263" d="M-4 0l16 82h193l248 1270h-195l16 82h990l-54 -267h-86l37 185h-620l-115 -588h571l-16 -82h-571l-117 -600h661l39 197h86l-55 -279h-1028zM610 1614l31 149h111l-31 -149h-111zM954 1614l31 149h111l-31 -149h-111z" />
<glyph unicode="&#xcc;" horiz-adv-x="702" d="M-4 0l16 82h193l248 1270h-195l16 82h478l-17 -82h-194l-248 -1270h194l-16 -82h-475zM328 1763h127l147 -227h-106z" />
<glyph unicode="&#xcd;" horiz-adv-x="702" d="M-4 0l16 82h193l248 1270h-195l16 82h478l-17 -82h-194l-248 -1270h194l-16 -82h-475zM446 1536l238 227h139l-258 -227h-119z" />
<glyph unicode="&#xce;" horiz-adv-x="702" d="M-4 0l16 82h193l248 1270h-195l16 82h478l-17 -82h-194l-248 -1270h194l-16 -82h-475zM297 1536l209 227h123l119 -227h-103l-82 164h-4l-147 -164h-115z" />
<glyph unicode="&#xcf;" horiz-adv-x="702" d="M-4 0l16 82h193l248 1270h-195l16 82h478l-17 -82h-194l-248 -1270h194l-16 -82h-475zM317 1614l31 149h111l-31 -149h-111zM662 1614l30 149h111l-31 -149h-110z" />
<glyph unicode="&#xd0;" horiz-adv-x="1605" d="M-4 0l16 82h193l117 600h-164l16 82h164l115 588h-195l16 82h625q287 0 449.5 -145.5t162.5 -407.5q0 -369 -240.5 -625t-611.5 -256h-663zM293 82h348q336 0 557 227.5t221 567.5q0 229 -140 352t-390 123h-346l-117 -588h375l-17 -82h-374z" />
<glyph unicode="&#xd1;" horiz-adv-x="1687" d="M-4 0l16 82h193l248 1270h-195l16 82h273l651 -1231q4 -8 10 -25.5t9 -19.5l8 -25h4q0 18 2 29q6 45 8 51l223 1139h-194l16 82h477l-16 -82h-195l-264 -1352h-80l-653 1233l-18 45l-7 25h-4q0 -18 -2 -29q-6 -45 -8 -51l-221 -1141h194l-16 -82h-475zM750 1542 q41 221 198 221q47 0 82 -23.5t50.5 -50t39 -50t51.5 -23.5q12 0 22.5 3t19 10t15.5 14.5t13 18.5t10 19.5t9.5 21.5t7.5 19.5l6 19.5t4 15h90q-41 -221 -199 -221q-47 0 -81.5 22.5t-50 51t-39 51t-52.5 22.5q-76 0 -106 -141h-90z" />
<glyph unicode="&#xd2;" horiz-adv-x="1697" d="M135 590q0 229 125 431t328 319.5t424 117.5q266 0 433 -168t167 -430q0 -176 -75 -341t-196.5 -282.5t-281.5 -189.5t-324 -72q-264 0 -432 172.5t-168 442.5zM227 590q0 -233 144.5 -382t373.5 -149q190 0 369.5 107.5t292.5 294t113 397.5q0 227 -144.5 371.5 t-374.5 144.5q-195 0 -372.5 -105.5t-289.5 -287.5t-112 -391zM831 1763h127l148 -227h-107z" />
<glyph unicode="&#xd3;" horiz-adv-x="1697" d="M135 590q0 229 125 431t328 319.5t424 117.5q266 0 433 -168t167 -430q0 -176 -75 -341t-196.5 -282.5t-281.5 -189.5t-324 -72q-264 0 -432 172.5t-168 442.5zM227 590q0 -233 144.5 -382t373.5 -149q190 0 369.5 107.5t292.5 294t113 397.5q0 227 -144.5 371.5 t-374.5 144.5q-195 0 -372.5 -105.5t-289.5 -287.5t-112 -391zM950 1536l238 227h139l-258 -227h-119z" />
<glyph unicode="&#xd4;" horiz-adv-x="1697" d="M135 590q0 229 125 431t328 319.5t424 117.5q266 0 433 -168t167 -430q0 -176 -75 -341t-196.5 -282.5t-281.5 -189.5t-324 -72q-264 0 -432 172.5t-168 442.5zM227 590q0 -233 144.5 -382t373.5 -149q190 0 369.5 107.5t292.5 294t113 397.5q0 227 -144.5 371.5 t-374.5 144.5q-195 0 -372.5 -105.5t-289.5 -287.5t-112 -391zM801 1536l209 227h123l118 -227h-102l-82 164h-4l-148 -164h-114z" />
<glyph unicode="&#xd5;" horiz-adv-x="1697" d="M135 590q0 229 125 431t328 319.5t424 117.5q266 0 433 -168t167 -430q0 -176 -75 -341t-196.5 -282.5t-281.5 -189.5t-324 -72q-264 0 -432 172.5t-168 442.5zM227 590q0 -233 144.5 -382t373.5 -149q190 0 369.5 107.5t292.5 294t113 397.5q0 227 -144.5 371.5 t-374.5 144.5q-195 0 -372.5 -105.5t-289.5 -287.5t-112 -391zM745 1542q41 221 199 221q47 0 82 -23.5t50.5 -50t39 -50t51.5 -23.5q12 0 22.5 3t19 10t15.5 14.5t13 18.5t10 19.5t9.5 21.5t7.5 19.5l6 19.5t4 15h90q-41 -221 -199 -221q-47 0 -81.5 22.5t-50 51t-39 51 t-52.5 22.5q-76 0 -106 -141h-91z" />
<glyph unicode="&#xd6;" horiz-adv-x="1697" d="M135 590q0 229 125 431t328 319.5t424 117.5q266 0 433 -168t167 -430q0 -176 -75 -341t-196.5 -282.5t-281.5 -189.5t-324 -72q-264 0 -432 172.5t-168 442.5zM227 590q0 -233 144.5 -382t373.5 -149q190 0 369.5 107.5t292.5 294t113 397.5q0 227 -144.5 371.5 t-374.5 144.5q-195 0 -372.5 -105.5t-289.5 -287.5t-112 -391zM821 1614l31 149h111l-31 -149h-111zM1165 1614l31 149h111l-31 -149h-111z" />
<glyph unicode="&#xd7;" d="M96 57l459 523l-459 522l58 57l456 -518l457 518l57 -57l-460 -522l460 -523l-57 -57l-457 518l-456 -518z" />
<glyph unicode="&#xd8;" horiz-adv-x="1695" d="M135 590q0 227 125 430t325.5 320.5t415.5 117.5q223 0 381 -119l131 144l66 -56l-131 -143q164 -168 164 -424q0 -233 -126 -439t-325.5 -326t-415.5 -120q-231 0 -383 121l-131 -143l-67 53l135 148q-164 170 -164 436zM227 590q0 -225 133 -371l963 1055 q-139 100 -322 100q-195 0 -372.5 -105.5t-289.5 -287.5t-112 -391zM422 162q137 -102 323 -103q190 0 369.5 107.5t292.5 294t113 397.5q0 215 -134 359z" />
<glyph unicode="&#xd9;" horiz-adv-x="1613" d="M221 1352l17 82h477l-17 -82h-194l-158 -811q-18 -92 -18 -158q0 -150 98 -237t274 -87q197 0 330 101q158 117 201 342l168 850h-195l17 82h477l-17 -82h-194l-172 -871q-53 -270 -246 -399q-156 -106 -373 -107q-209 0 -333.5 110t-124.5 288q0 88 20 170l158 809h-195 zM784 1763h127l148 -227h-107z" />
<glyph unicode="&#xda;" horiz-adv-x="1613" d="M221 1352l17 82h477l-17 -82h-194l-158 -811q-18 -92 -18 -158q0 -150 98 -237t274 -87q197 0 330 101q158 117 201 342l168 850h-195l17 82h477l-17 -82h-194l-172 -871q-53 -270 -246 -399q-156 -106 -373 -107q-209 0 -333.5 110t-124.5 288q0 88 20 170l158 809h-195 zM903 1536l238 227h139l-258 -227h-119z" />
<glyph unicode="&#xdb;" horiz-adv-x="1613" d="M221 1352l17 82h477l-17 -82h-194l-158 -811q-18 -92 -18 -158q0 -150 98 -237t274 -87q197 0 330 101q158 117 201 342l168 850h-195l17 82h477l-17 -82h-194l-172 -871q-53 -270 -246 -399q-156 -106 -373 -107q-209 0 -333.5 110t-124.5 288q0 88 20 170l158 809h-195 zM754 1536l209 227h122l119 -227h-102l-82 164h-4l-148 -164h-114z" />
<glyph unicode="&#xdc;" horiz-adv-x="1613" d="M221 1352l17 82h477l-17 -82h-194l-158 -811q-18 -92 -18 -158q0 -150 98 -237t274 -87q197 0 330 101q158 117 201 342l168 850h-195l17 82h477l-17 -82h-194l-172 -871q-53 -270 -246 -399q-156 -106 -373 -107q-209 0 -333.5 110t-124.5 288q0 88 20 170l158 809h-195 zM774 1614l31 149h110l-30 -149h-111zM1118 1614l31 149h111l-31 -149h-111z" />
<glyph unicode="&#xdd;" horiz-adv-x="1302" d="M168 1352l16 82h414l-16 -82h-170l237 -588q2 -6 6 -16.5t7 -16.5q4 -12 4 -18h4q2 6 12 16l27 35l469 588h-170l16 82h420l-17 -82h-145l-582 -729l-106 -541h194l-16 -82h-477l16 82h195l106 541l-299 729h-145zM748 1536l237 227h139l-258 -227h-118z" />
<glyph unicode="&#xde;" horiz-adv-x="1302" d="M-4 0l16 82h193l248 1270h-195l16 82h478l-17 -82h-194l-37 -185h373q172 0 273 -92t101 -254q0 -217 -153.5 -355t-360.5 -138h-395l-49 -246h194l-16 -82h-475zM356 410h379q174 0 299 114.5t125 304.5q0 123 -77.5 189.5t-215.5 66.5h-379z" />
<glyph unicode="&#xdf;" horiz-adv-x="1161" d="M80 0l213 1104q31 162 160 258t274 96t223 -70.5t78 -179.5q0 -68 -35 -127t-84 -101l-98 -80t-84 -79t-35 -84q0 -45 53.5 -95t118 -92t117.5 -111.5t53 -147.5q0 -125 -105.5 -215t-246.5 -90q-127 0 -238 37q-43 14 -86 34l19 90q27 -16 82 -38q96 -39 221 -39 q98 0 180 57t82 164q0 51 -36 99t-86 85l-100 75q-50 38 -86 86t-36 99q0 68 53.5 132.5t115.5 105.5t115.5 103.5t53.5 127.5q0 70 -53.5 120t-155.5 50q-117 0 -219 -78.5t-131 -212.5l-211 -1083h-86z" />
<glyph unicode="&#xe0;" horiz-adv-x="1095" d="M16 227q0 82 32 146.5t88.5 106.5t124 72t150.5 45t156.5 21.5t151.5 6.5h80q8 39 10 51q8 41 8 80q0 100 -51 154.5t-178 54.5q-111 0 -221 -50q-47 -20 -88 -49l-37 78q47 33 98 53q123 51 258 52q309 0 309 -277q0 -66 -55 -311.5t-55 -284.5q0 -63 27.5 -81.5 t74.5 -18.5q37 0 43 2t12 2l-16 -80q-16 0 -25 -2q-15 -2 -39 -2q-92 0 -135 56q-31 41 -31 105q0 24 5 52h-4q2 0 -14.5 -23.5t-49.5 -58.5t-78 -69.5t-111.5 -58.5t-136.5 -24q-131 0 -217 68.5t-86 183.5zM106 240q0 -78 56.5 -131.5t167.5 -53.5q154 0 277.5 136.5 t164.5 302.5l12 51h-65q-613 0 -613 -305zM440 1434h127l148 -228h-107z" />
<glyph unicode="&#xe1;" horiz-adv-x="1095" d="M16 227q0 82 32 146.5t88.5 106.5t124 72t150.5 45t156.5 21.5t151.5 6.5h80q8 39 10 51q8 41 8 80q0 100 -51 154.5t-178 54.5q-111 0 -221 -50q-47 -20 -88 -49l-37 78q47 33 98 53q123 51 258 52q309 0 309 -277q0 -66 -55 -311.5t-55 -284.5q0 -63 27.5 -81.5 t74.5 -18.5q37 0 43 2t12 2l-16 -80q-16 0 -25 -2q-15 -2 -39 -2q-92 0 -135 56q-31 41 -31 105q0 24 5 52h-4q2 0 -14.5 -23.5t-49.5 -58.5t-78 -69.5t-111.5 -58.5t-136.5 -24q-131 0 -217 68.5t-86 183.5zM106 240q0 -78 56.5 -131.5t167.5 -53.5q154 0 277.5 136.5 t164.5 302.5l12 51h-65q-613 0 -613 -305zM559 1206l238 228h139l-258 -228h-119z" />
<glyph unicode="&#xe2;" horiz-adv-x="1095" d="M16 227q0 82 32 146.5t88.5 106.5t124 72t150.5 45t156.5 21.5t151.5 6.5h80q8 39 10 51q8 41 8 80q0 100 -51 154.5t-178 54.5q-111 0 -221 -50q-47 -20 -88 -49l-37 78q47 33 98 53q123 51 258 52q309 0 309 -277q0 -66 -55 -311.5t-55 -284.5q0 -63 27.5 -81.5 t74.5 -18.5q37 0 43 2t12 2l-16 -80q-16 0 -25 -2q-15 -2 -39 -2q-92 0 -135 56q-31 41 -31 105q0 24 5 52h-4q2 0 -14.5 -23.5t-49.5 -58.5t-78 -69.5t-111.5 -58.5t-136.5 -24q-131 0 -217 68.5t-86 183.5zM106 240q0 -78 56.5 -131.5t167.5 -53.5q154 0 277.5 136.5 t164.5 302.5l12 51h-65q-613 0 -613 -305zM410 1206l208 228h123l119 -228h-102l-82 164h-4l-148 -164h-114z" />
<glyph unicode="&#xe3;" horiz-adv-x="1095" d="M16 227q0 82 32 146.5t88.5 106.5t124 72t150.5 45t156.5 21.5t151.5 6.5h80q8 39 10 51q8 41 8 80q0 100 -51 154.5t-178 54.5q-111 0 -221 -50q-47 -20 -88 -49l-37 78q47 33 98 53q123 51 258 52q309 0 309 -277q0 -66 -55 -311.5t-55 -284.5q0 -63 27.5 -81.5 t74.5 -18.5q37 0 43 2t12 2l-16 -80q-16 0 -25 -2q-15 -2 -39 -2q-92 0 -135 56q-31 41 -31 105q0 24 5 52h-4q2 0 -14.5 -23.5t-49.5 -58.5t-78 -69.5t-111.5 -58.5t-136.5 -24q-131 0 -217 68.5t-86 183.5zM106 240q0 -78 56.5 -131.5t167.5 -53.5q154 0 277.5 136.5 t164.5 302.5l12 51h-65q-613 0 -613 -305zM354 1212q39 221 199 222q47 0 82 -22.5t50 -51.5t39 -51.5t52 -22.5q12 0 22.5 3t18.5 10.5l15.5 14.5t13.5 18t10 19.5t9 21.5l7.5 19.5t6.5 19.5t4 15h90q-20 -109 -71.5 -165t-127.5 -56q-47 0 -82 23.5t-50 50.5t-38.5 50.5 t-52.5 23.5q-76 0 -107 -142h-90z" />
<glyph unicode="&#xe4;" horiz-adv-x="1095" d="M16 227q0 82 32 146.5t88.5 106.5t124 72t150.5 45t156.5 21.5t151.5 6.5h80q8 39 10 51q8 41 8 80q0 100 -51 154.5t-178 54.5q-111 0 -221 -50q-47 -20 -88 -49l-37 78q47 33 98 53q123 51 258 52q309 0 309 -277q0 -66 -55 -311.5t-55 -284.5q0 -63 27.5 -81.5 t74.5 -18.5q37 0 43 2t12 2l-16 -80q-16 0 -25 -2q-15 -2 -39 -2q-92 0 -135 56q-31 41 -31 105q0 24 5 52h-4q2 0 -14.5 -23.5t-49.5 -58.5t-78 -69.5t-111.5 -58.5t-136.5 -24q-131 0 -217 68.5t-86 183.5zM106 240q0 -78 56.5 -131.5t167.5 -53.5q154 0 277.5 136.5 t164.5 302.5l12 51h-65q-613 0 -613 -305zM430 1284l31 150h110l-30 -150h-111zM774 1284l31 150h110l-30 -150h-111z" />
<glyph unicode="&#xe5;" horiz-adv-x="1095" d="M16 227q0 82 32 146.5t88.5 106.5t124 72t150.5 45t156.5 21.5t151.5 6.5h80q8 39 10 51q8 41 8 80q0 100 -51 154.5t-178 54.5q-111 0 -221 -50q-47 -20 -88 -49l-37 78q47 33 98 53q123 51 258 52q309 0 309 -277q0 -66 -55 -311.5t-55 -284.5q0 -63 27.5 -81.5 t74.5 -18.5q37 0 43 2t12 2l-16 -80q-16 0 -25 -2q-15 -2 -39 -2q-92 0 -135 56q-31 41 -31 105q0 24 5 52h-4q2 0 -14.5 -23.5t-49.5 -58.5t-78 -69.5t-111.5 -58.5t-136.5 -24q-131 0 -217 68.5t-86 183.5zM106 240q0 -78 56.5 -131.5t167.5 -53.5q154 0 277.5 136.5 t164.5 302.5l12 51h-65q-613 0 -613 -305zM508 1303q0 70 54 121t122 51q61 0 100 -36t39 -96q0 -68 -54 -120t-124 -52q-59 0 -98 37.5t-39 94.5zM590 1305q0 -57 59 -58q41 0 66.5 28t25.5 68q0 57 -61 58q-37 0 -63.5 -27.5t-26.5 -68.5z" />
<glyph unicode="&#xe6;" horiz-adv-x="1783" d="M20 231q0 383 642 383h131q18 102 18 144q0 207 -240 207q-100 0 -211 -50q-51 -23 -90 -49l-37 78q45 33 97 53q115 51 241 52q307 0 322 -222h4q166 221 436 222q178 0 268.5 -97.5t90.5 -267.5q0 -37 -13 -98l-12 -51h-805l-6 -35q-6 -31 -6 -80q0 -168 86 -264.5 t254 -96.5q119 0 246 66q43 23 98 63l33 -77q-47 -35 -109 -68q-131 -68 -264 -68q-170 0 -279.5 81t-138.5 225h-4q-12 -29 -42 -72t-84 -99.5t-140 -95.5t-184 -39q-131 0 -216.5 67.5t-85.5 188.5zM113 238q0 -80 57 -131.5t166 -51.5q156 0 276.5 134.5t155.5 299.5 l10 46h-141q-524 0 -524 -297zM887 614h706l4 27q2 16 2 55q0 137 -75.5 205t-190.5 68q-147 0 -267 -91.5t-179 -263.5z" />
<glyph unicode="&#xe7;" horiz-adv-x="1116" d="M80 418q0 264 196.5 447.5t444.5 183.5q74 0 147.5 -19.5t128.5 -70.5q45 -41 46 -96q0 -12 -3 -25l-18 -101h-86l14 80q1 8 1 16q0 60 -70 94q-80 38 -176 38q-199 0 -367 -158t-168 -385q0 -172 102.5 -267.5t264.5 -95.5q143 0 268 74q55 33 100 74l33 -78 q-51 -43 -109 -76q-143 -78 -297 -78h-4l-36 -98q51 -8 84.5 -41t33.5 -90q0 -80 -64.5 -122t-146.5 -42q-39 0 -71 4l-27 6l16 76l23 -6q29 -4 57 -4q127 0 127 88q0 66 -110 66h-25l68 170q-170 20 -273.5 135t-103.5 301z" />
<glyph unicode="&#xe8;" horiz-adv-x="1126" d="M80 403q0 254 173 450t429 196q174 0 262 -99.5t88 -263.5q0 -47 -12 -108q-6 -33 -14 -52h-822l-6 -32q-6 -31 -6 -80q0 -156 94 -255.5t266 -99.5q117 0 244 66q43 23 98 63l33 -77q-47 -35 -108 -68q-131 -68 -271 -68q-199 0 -323.5 115.5t-124.5 312.5zM205 606h727 l4 25q4 33 4 61q0 137 -72.5 207t-191.5 70q-147 0 -279.5 -95.5t-191.5 -267.5zM526 1434h127l148 -228h-107z" />
<glyph unicode="&#xe9;" horiz-adv-x="1126" d="M80 403q0 254 173 450t429 196q174 0 262 -99.5t88 -263.5q0 -47 -12 -108q-6 -33 -14 -52h-822l-6 -32q-6 -31 -6 -80q0 -156 94 -255.5t266 -99.5q117 0 244 66q43 23 98 63l33 -77q-47 -35 -108 -68q-131 -68 -271 -68q-199 0 -323.5 115.5t-124.5 312.5zM205 606h727 l4 25q4 33 4 61q0 137 -72.5 207t-191.5 70q-147 0 -279.5 -95.5t-191.5 -267.5zM645 1206l238 228h139l-258 -228h-119z" />
<glyph unicode="&#xea;" horiz-adv-x="1126" d="M80 403q0 254 173 450t429 196q174 0 262 -99.5t88 -263.5q0 -47 -12 -108q-6 -33 -14 -52h-822l-6 -32q-6 -31 -6 -80q0 -156 94 -255.5t266 -99.5q117 0 244 66q43 23 98 63l33 -77q-47 -35 -108 -68q-131 -68 -271 -68q-199 0 -323.5 115.5t-124.5 312.5zM205 606h727 l4 25q4 33 4 61q0 137 -72.5 207t-191.5 70q-147 0 -279.5 -95.5t-191.5 -267.5zM496 1206l209 228h122l119 -228h-102l-82 164h-4l-148 -164h-114z" />
<glyph unicode="&#xeb;" horiz-adv-x="1126" d="M80 403q0 254 173 450t429 196q174 0 262 -99.5t88 -263.5q0 -47 -12 -108q-6 -33 -14 -52h-822l-6 -32q-6 -31 -6 -80q0 -156 94 -255.5t266 -99.5q117 0 244 66q43 23 98 63l33 -77q-47 -35 -108 -68q-131 -68 -271 -68q-199 0 -323.5 115.5t-124.5 312.5zM205 606h727 l4 25q4 33 4 61q0 137 -72.5 207t-191.5 70q-147 0 -279.5 -95.5t-191.5 -267.5zM516 1284l31 150h110l-30 -150h-111zM860 1284l31 150h110l-30 -150h-111z" />
<glyph unicode="&#xec;" horiz-adv-x="557" d="M100 944l17 80h280l-155 -788q-6 -37 -6 -60q0 -63 27.5 -81.5t74.5 -18.5q37 0 43 2t12 2l-16 -80q-16 0 -25 -2q-14 -2 -39 -2q-27 0 -51 6t-53 21.5t-46.5 51.5t-17.5 87q0 31 9 61l141 721h-195zM188 1434h127l148 -228h-107z" />
<glyph unicode="&#xed;" horiz-adv-x="557" d="M100 944l17 80h280l-155 -788q-6 -37 -6 -60q0 -63 27.5 -81.5t74.5 -18.5q37 0 43 2t12 2l-16 -80q-16 0 -25 -2q-14 -2 -39 -2q-27 0 -51 6t-53 21.5t-46.5 51.5t-17.5 87q0 31 9 61l141 721h-195zM307 1206l238 228h139l-258 -228h-119z" />
<glyph unicode="&#xee;" horiz-adv-x="557" d="M100 944l17 80h280l-155 -788q-6 -37 -6 -60q0 -63 27.5 -81.5t74.5 -18.5q37 0 43 2t12 2l-16 -80q-16 0 -25 -2q-14 -2 -39 -2q-27 0 -51 6t-53 21.5t-46.5 51.5t-17.5 87q0 31 9 61l141 721h-195zM158 1206l209 228h122l119 -228h-102l-82 164h-4l-148 -164h-114z" />
<glyph unicode="&#xef;" horiz-adv-x="557" d="M100 944l17 80h280l-155 -788q-6 -37 -6 -60q0 -63 27.5 -81.5t74.5 -18.5q37 0 43 2t12 2l-16 -80q-16 0 -25 -2q-14 -2 -39 -2q-27 0 -51 6t-53 21.5t-46.5 51.5t-17.5 87q0 31 9 61l141 721h-195zM203 1284l30 150h111l-31 -150h-110zM498 1284l30 150h111l-31 -150 h-110z" />
<glyph unicode="&#xf0;" horiz-adv-x="1210" d="M78 375q0 223 159.5 403t421.5 180q150 0 252 -69q41 -27 72 -72h4q-35 242 -209 381l-383 -164l-20 76l330 141q-127 74 -293 121l37 72q213 -57 346 -154l284 121l23 -76l-238 -100q217 -195 217 -510q0 -115 -35.5 -240t-105.5 -241.5t-191.5 -192.5t-275.5 -76 q-190 0 -292.5 115t-102.5 285zM168 379q0 -137 80 -229.5t225 -92.5q211 0 355.5 181.5t144.5 369.5q0 121 -85 195t-231 74q-199 0 -344 -147.5t-145 -350.5z" />
<glyph unicode="&#xf1;" horiz-adv-x="1298" d="M111 944l16 80h162q57 0 78.5 -19.5t21.5 -62.5q0 -23 -13.5 -86t-27.5 -96h4q53 104 181.5 196.5t297.5 92.5q135 0 205 -67t70 -189q0 -68 -51 -324t-51 -293q0 -45 17 -68.5t35.5 -27.5t49.5 -4q35 0 41 2t14 2l-16 -80q-16 0 -25 -2q-14 -2 -39 -2q-61 0 -114.5 35 t-53.5 125q0 37 51.5 293t51.5 323q0 193 -197 193q-180 0 -330.5 -143.5t-187.5 -342.5l-92 -479h-86l174 899q2 8 2 15q0 30 -39 30h-149zM514 1212q39 221 199 222q47 0 81.5 -22.5t50 -51.5t39 -51.5t52.5 -22.5q12 0 22.5 3t18.5 10.5l15 14.5t13.5 18t10.5 19.5 t9 21.5t7 19.5l6 19.5t4 15h91q-20 -109 -71.5 -165t-127.5 -56q-47 0 -82 23.5t-50.5 50.5t-39 50.5t-51.5 23.5q-76 0 -107 -142h-90z" />
<glyph unicode="&#xf2;" horiz-adv-x="1273" d="M80 420q0 258 192.5 443.5t444.5 185.5q197 0 319.5 -123t122.5 -316q0 -258 -193.5 -446.5t-443.5 -188.5q-197 0 -319.5 125t-122.5 320zM170 422q0 -160 100.5 -261.5t261.5 -101.5q207 0 372 163t165 386q0 156 -101.5 256.5t-260.5 100.5q-209 0 -373 -161 t-164 -382zM555 1434h127l147 -228h-106z" />
<glyph unicode="&#xf3;" horiz-adv-x="1273" d="M80 420q0 258 192.5 443.5t444.5 185.5q197 0 319.5 -123t122.5 -316q0 -258 -193.5 -446.5t-443.5 -188.5q-197 0 -319.5 125t-122.5 320zM170 422q0 -160 100.5 -261.5t261.5 -101.5q207 0 372 163t165 386q0 156 -101.5 256.5t-260.5 100.5q-209 0 -373 -161 t-164 -382zM674 1206l237 228h140l-258 -228h-119z" />
<glyph unicode="&#xf4;" horiz-adv-x="1273" d="M80 420q0 258 192.5 443.5t444.5 185.5q197 0 319.5 -123t122.5 -316q0 -258 -193.5 -446.5t-443.5 -188.5q-197 0 -319.5 125t-122.5 320zM170 422q0 -160 100.5 -261.5t261.5 -101.5q207 0 372 163t165 386q0 156 -101.5 256.5t-260.5 100.5q-209 0 -373 -161 t-164 -382zM524 1206l209 228h123l119 -228h-103l-81 164h-5l-147 -164h-115z" />
<glyph unicode="&#xf5;" horiz-adv-x="1273" d="M80 420q0 258 192.5 443.5t444.5 185.5q197 0 319.5 -123t122.5 -316q0 -258 -193.5 -446.5t-443.5 -188.5q-197 0 -319.5 125t-122.5 320zM170 422q0 -160 100.5 -261.5t261.5 -101.5q207 0 372 163t165 386q0 156 -101.5 256.5t-260.5 100.5q-209 0 -373 -161 t-164 -382zM469 1212q39 221 199 222q47 0 81.5 -22.5t50 -51.5t39 -51.5t52.5 -22.5q12 0 22.5 3t18.5 10.5l15 14.5t13.5 18t10.5 19.5t9 21.5t7 19.5l6 19.5t4 15h90q-20 -109 -71 -165t-127 -56q-47 0 -82 23.5t-50.5 50.5t-39 50.5t-51.5 23.5q-76 0 -107 -142h-90z " />
<glyph unicode="&#xf6;" horiz-adv-x="1273" d="M80 420q0 258 192.5 443.5t444.5 185.5q197 0 319.5 -123t122.5 -316q0 -258 -193.5 -446.5t-443.5 -188.5q-197 0 -319.5 125t-122.5 320zM170 422q0 -160 100.5 -261.5t261.5 -101.5q207 0 372 163t165 386q0 156 -101.5 256.5t-260.5 100.5q-209 0 -373 -161 t-164 -382zM545 1284l30 150h111l-31 -150h-110zM889 1284l31 150h110l-31 -150h-110z" />
<glyph unicode="&#xf7;" d="M121 539v82h975v-82h-975zM549 156v120h117v-120h-117zM549 883v121h117v-121h-117z" />
<glyph unicode="&#xf8;" horiz-adv-x="1273" d="M80 420q0 258 190.5 443.5t436.5 185.5q166 0 284 -86l103 112l55 -53l-105 -115q115 -129 115 -297q0 -258 -191.5 -446.5t-435.5 -188.5q-156 0 -270 76l-100 -108l-56 53l99 106q-125 125 -125 318zM170 422q0 -150 94 -254l666 729q-98 68 -223 68q-209 0 -373 -161 t-164 -382zM322 117q94 -57 210 -58q207 0 372 163t165 386q0 127 -86 234z" />
<glyph unicode="&#xf9;" horiz-adv-x="1300" d="M96 944l15 80h280l-119 -614q-20 -84 -20 -164q0 -186 201 -187q182 0 327.5 150.5t180.5 339.5l75 395h-192l14 80h281l-154 -788q-6 -37 -6 -60q0 -63 27.5 -81.5t74.5 -18.5q37 0 43 2t13 2l-17 -80q-16 0 -24 -2q-14 -2 -39 -2q-113 0 -148 73q-18 39 -18 86 q0 42 14 93h-4q-59 -98 -177 -185.5t-286 -87.5q-121 0 -197.5 62.5t-76.5 195.5q0 53 16 142l109 569h-193zM524 1434h127l148 -228h-107z" />
<glyph unicode="&#xfa;" horiz-adv-x="1300" d="M96 944l15 80h280l-119 -614q-20 -84 -20 -164q0 -186 201 -187q182 0 327.5 150.5t180.5 339.5l75 395h-192l14 80h281l-154 -788q-6 -37 -6 -60q0 -63 27.5 -81.5t74.5 -18.5q37 0 43 2t13 2l-17 -80q-16 0 -24 -2q-14 -2 -39 -2q-113 0 -148 73q-18 39 -18 86 q0 42 14 93h-4q-59 -98 -177 -185.5t-286 -87.5q-121 0 -197.5 62.5t-76.5 195.5q0 53 16 142l109 569h-193zM643 1206l238 228h139l-258 -228h-119z" />
<glyph unicode="&#xfb;" horiz-adv-x="1300" d="M96 944l15 80h280l-119 -614q-20 -84 -20 -164q0 -186 201 -187q182 0 327.5 150.5t180.5 339.5l75 395h-192l14 80h281l-154 -788q-6 -37 -6 -60q0 -63 27.5 -81.5t74.5 -18.5q37 0 43 2t13 2l-17 -80q-16 0 -24 -2q-14 -2 -39 -2q-113 0 -148 73q-18 39 -18 86 q0 42 14 93h-4q-59 -98 -177 -185.5t-286 -87.5q-121 0 -197.5 62.5t-76.5 195.5q0 53 16 142l109 569h-193zM494 1206l208 228h123l119 -228h-102l-82 164h-4l-148 -164h-114z" />
<glyph unicode="&#xfc;" horiz-adv-x="1300" d="M96 944l15 80h280l-119 -614q-20 -84 -20 -164q0 -186 201 -187q182 0 327.5 150.5t180.5 339.5l75 395h-192l14 80h281l-154 -788q-6 -37 -6 -60q0 -63 27.5 -81.5t74.5 -18.5q37 0 43 2t13 2l-17 -80q-16 0 -24 -2q-14 -2 -39 -2q-113 0 -148 73q-18 39 -18 86 q0 42 14 93h-4q-59 -98 -177 -185.5t-286 -87.5q-121 0 -197.5 62.5t-76.5 195.5q0 53 16 142l109 569h-193zM514 1284l31 150h110l-30 -150h-111zM858 1284l31 150h110l-30 -150h-111z" />
<glyph unicode="&#xfd;" horiz-adv-x="1150" d="M-94 -375l49 70q12 -12 33 -23q45 -20 86 -20q125 0 239 184l103 168l-191 940h-139l16 80h392l-17 -80h-162l154 -780q4 -10 4 -41v-17h4l8 17l23 41l457 780h-162l16 80h400l-17 -80h-141l-688 -1159q-131 -215 -303 -215q-74 0 -123 27q-21 12 -41 28zM623 1206 l237 228h139l-258 -228h-118z" />
<glyph unicode="&#xfe;" horiz-adv-x="1208" d="M2 -410l340 1764h-184l16 80h270l-100 -523q-2 -10 -6 -32.5t-8 -30.5q-8 -23 -11 -29h5q55 96 157.5 163t235.5 67q180 0 277.5 -107.5t97.5 -296.5q0 -287 -167 -478.5t-386 -191.5q-125 0 -214 59.5t-120 172.5h-4q0 -20 -2 -31q-6 -49 -11 -70l-102 -516h-84z M254 383q0 -139 72.5 -231.5t208.5 -92.5q178 0 321 162t143 420q0 152 -74.5 238t-207.5 86q-203 0 -333 -182.5t-130 -399.5z" />
<glyph unicode="&#xff;" horiz-adv-x="1150" d="M-94 -375l49 70q12 -12 33 -23q45 -20 86 -20q125 0 239 184l103 168l-191 940h-139l16 80h392l-17 -80h-162l154 -780q4 -10 4 -41v-17h4l8 17l23 41l457 780h-162l16 80h400l-17 -80h-141l-688 -1159q-131 -215 -303 -215q-74 0 -123 27q-21 12 -41 28zM494 1284 l30 150h111l-31 -150h-110zM838 1284l30 150h111l-31 -150h-110z" />
<glyph unicode="&#x152;" horiz-adv-x="1949" d="M135 578q0 354 257 615t601 261q39 0 132.5 -10t123.5 -10h701l-54 -267h-86l37 185h-620l-115 -588h571l-16 -82h-571l-117 -600h661l37 186h86l-53 -268h-719q-27 0 -116 -10t-125 -10q-283 0 -449 166t-166 432zM227 567q0 -225 138.5 -364.5t379.5 -139.5q66 0 101 9 l45 8l248 1274l-43 8q-35 8 -99 8q-319 0 -544.5 -236.5t-225.5 -566.5z" />
<glyph unicode="&#x153;" horiz-adv-x="2097" d="M80 420q0 258 193.5 443.5t439.5 185.5q162 0 272.5 -83t153.5 -225h4q82 139 213 223.5t291 84.5q176 0 266 -99.5t90 -263.5q0 -47 -12 -108q-6 -33 -15 -52h-821l-6 -32q-6 -31 -6 -80q0 -156 94 -255.5t266 -99.5q117 0 244 66q43 23 98 63l33 -77q-43 -33 -106 -68 q-131 -68 -269 -68q-168 0 -284.5 82t-153.5 228h-4q-86 -139 -232.5 -224.5t-302.5 -85.5q-201 0 -323.5 125t-122.5 320zM170 422q0 -160 100.5 -261.5t261.5 -101.5q207 0 372 163t165 386q0 156 -101.5 256.5t-260.5 100.5q-209 0 -373 -161t-164 -382zM1176 606h727 l4 25q4 33 4 61q0 137 -73 207t-191 70q-147 0 -279.5 -95.5t-191.5 -267.5z" />
<glyph unicode="&#x178;" horiz-adv-x="1302" d="M168 1352l16 82h414l-16 -82h-170l237 -588q2 -6 6 -16.5t7 -16.5q4 -12 4 -18h4q2 6 12 16l27 35l469 588h-170l16 82h420l-17 -82h-145l-582 -729l-106 -541h194l-16 -82h-477l16 82h195l106 541l-299 729h-145zM618 1614l31 149h111l-31 -149h-111zM963 1614l30 149 h111l-31 -149h-110z" />
<glyph unicode="&#x2c6;" horiz-adv-x="1040" d="M154 1536l208 227h123l119 -227h-102l-82 164h-4l-148 -164h-114z" />
<glyph unicode="&#x2dc;" horiz-adv-x="1042" d="M98 1542q41 221 199 221q47 0 82 -23.5t50 -50t39 -50t52 -23.5q12 0 22.5 3t18.5 10t15.5 14.5t13.5 18.5t10 19.5t9 21.5t7 19.5t6.5 19.5t4.5 15h90q-41 -221 -199 -221q-47 0 -82 22.5t-50 51t-38.5 51t-52.5 22.5q-76 0 -107 -141h-90z" />
<glyph unicode="&#x2013;" horiz-adv-x="1488" d="M244 539l14 82h975l-14 -82h-975z" />
<glyph unicode="&#x2014;" horiz-adv-x="1898" d="M244 539l14 82h1384l-14 -82h-1384z" />
<glyph unicode="&#x2018;" horiz-adv-x="430" d="M209 1059l192 391h84l-161 -391h-115z" />
<glyph unicode="&#x2019;" horiz-adv-x="421" d="M213 1059l162 391h114l-192 -391h-84z" />
<glyph unicode="&#x201a;" horiz-adv-x="491" d="M-51 -266l162 391h114l-192 -391h-84z" />
<glyph unicode="&#x201c;" horiz-adv-x="655" d="M209 1059l192 391h84l-161 -391h-115zM434 1059l193 391h84l-162 -391h-115z" />
<glyph unicode="&#x201d;" horiz-adv-x="647" d="M213 1059l162 391h114l-192 -391h-84zM438 1059l162 391h115l-193 -391h-84z" />
<glyph unicode="&#x201e;" horiz-adv-x="716" d="M-51 -266l162 391h114l-192 -391h-84zM174 -266l162 391h115l-193 -391h-84z" />
<glyph unicode="&#x2022;" horiz-adv-x="808" d="M131 596q0 111 80 190.5t190.5 79.5t190.5 -79.5t80 -190.5t-80 -190.5t-190.5 -79.5t-190.5 79.5t-80 190.5z" />
<glyph unicode="&#x2026;" horiz-adv-x="1357" d="M70 0l26 129h125l-26 -129h-125zM506 0l26 129h125l-26 -129h-125zM942 0l27 129h125l-27 -129h-125z" />
<glyph unicode="&#x2039;" horiz-adv-x="673" d="M104 584l394 415h116l-407 -426l258 -415h-98z" />
<glyph unicode="&#x203a;" horiz-adv-x="677" d="M55 158l408 426l-258 415h98l262 -426l-393 -415h-117z" />
<glyph unicode="&#x20ac;" horiz-adv-x="1222" d="M98 539l15 82h112q8 117 35 223h-110l14 82h125q104 238 316 385t458 147q70 0 139 -12l53 -12l-36 -82q-10 2 -45 10q-51 10 -113 10q-213 0 -397.5 -124t-278.5 -322h672l-31 -82h-672q-29 -98 -39 -223h629l-29 -82h-602q4 -207 131 -342.5t361 -135.5q57 0 133 15 l53 12l8 -86q-20 -6 -57 -14q-70 -12 -139 -13q-262 0 -422 156t-160 408h-123z" />
<glyph unicode="&#x2122;" horiz-adv-x="2082" d="M219 1356v78h737v-78h-329v-815h-80v815h-328zM1040 541l72 893h72l258 -553q14 -25 20 -56q2 -6 5 -14t3 -12h5q0 4 3 12t5 14l20 56l258 553h72l72 -893h-78l-58 671v41q0 10 3 17h-5l-260 -561h-69l-260 561h-4q2 -6 2 -17v-41l-58 -671h-78z" />
<glyph unicode="&#xe000;" horiz-adv-x="1025" d="M0 1025h1025v-1025h-1025v1025z" />
<glyph unicode="&#xfb01;" horiz-adv-x="1142" d="M111 944l14 80h194l11 45q18 96 57 167t81 108.5t93 60t86 29t70 6.5q37 0 47 -2q6 -2 16 -2l-18 -80q-6 0 -12.5 2t-32.5 2q-236 0 -301 -289l-10 -47h581l-156 -788q-6 -37 -6 -60q0 -63 28 -81.5t75 -18.5q37 0 43 2t12 2l-16 -80q-16 0 -25 -2q-14 -2 -39 -2 q-27 0 -51.5 6t-53 21.5t-46 51.5t-17.5 87q0 31 8 61l142 721h-494l-182 -944h-86l182 944h-194zM938 1284l31 150h110l-30 -150h-111z" />
<glyph unicode="&#xfb02;" horiz-adv-x="1157" d="M111 944l14 80h194l9 41q76 393 460 393q104 0 207 -20q53 -10 80 -21l-227 -1179q-8 -31 -8 -64q0 -43 17 -66.5t35.5 -27.5t49.5 -4q37 0 43 2t12 2l-16 -80q-14 0 -20 -2q-14 -2 -43 -2q-27 0 -51.5 6t-53.5 21.5t-46 51.5t-17 87q0 33 8 63l219 1131q-14 6 -43 12 q-61 12 -148 12q-63 0 -112 -10t-104.5 -41t-94.5 -97.5t-59 -164.5l-8 -43h272l-14 -80h-273l-182 -944h-88l182 944h-194z" />
<glyph unicode="&#xfb03;" horiz-adv-x="1755" d="M113 944l14 80h192l11 45q23 117 74 198t113.5 114.5t109.5 46t92 12.5q37 0 47 -2q6 -2 16 -2l-18 -80q-6 0 -12.5 2t-32.5 2q-236 0 -301 -289l-10 -47h522l10 45q23 117 74 198t113.5 114.5t109.5 46t92 12.5q37 0 47 -2q6 -2 17 -2l-19 -80q-6 0 -12 2t-33 2 q-236 0 -301 -289l-10 -47h581l-155 -788q-6 -37 -6 -60q0 -63 27.5 -81.5t74.5 -18.5q37 0 43 2t12 2l-16 -80q-16 0 -25 -2q-14 -2 -38 -2q-27 0 -51.5 6t-53.5 21.5t-46 51.5t-17 87q0 31 8 61l141 721h-493l-183 -944h-88l182 944h-522l-182 -944h-88l182 944h-192z M1550 1284l31 150h111l-31 -150h-111z" />
<glyph unicode="&#xfb04;" horiz-adv-x="1767" d="M113 944l14 80h192l11 45q23 117 74 198t113.5 114.5t109.5 46t92 12.5q37 0 47 -2q6 -2 16 -2l-18 -80q-6 0 -12.5 2t-32.5 2q-236 0 -301 -289l-10 -47h522l8 41q76 393 461 393q104 0 207 -20q53 -10 80 -21l-228 -1179q-8 -31 -8 -64q0 -43 17.5 -66.5t36 -27.5 t48.5 -4q37 0 43.5 2t12.5 2l-17 -80q-14 0 -20 -2q-14 -2 -43 -2q-27 0 -51.5 6t-53 21.5t-46 51.5t-17.5 87q0 33 8 63l219 1131q-14 6 -43 12q-61 12 -147 12q-63 0 -112.5 -10t-105 -41t-94 -97.5t-59.5 -164.5l-8 -43h272l-14 -80h-272l-183 -944h-88l182 944h-522 l-182 -944h-88l182 944h-192z" />
<glyph horiz-adv-x="512" />
</font>
</defs>
</svg>
