<?xml version="1.0" standalone="no"?>
<!DOCTYPE svg PUBLIC "-//W3C//DTD SVG 1.1//EN" "http://www.w3.org/Graphics/SVG/1.1/DTD/svg11.dtd" >
<svg xmlns="http://www.w3.org/2000/svg">
<metadata>
This is a custom SVG webfont generated by Font Squirrel.
Copyright   : Copyright c 2009 by Jos Buivenga All rights reserved TKrip
Designer    : Jos Buivenga
Foundry     : Jos Buivenga
Foundry URL : httpwwwexljbriscom
</metadata>
<defs>
<font id="MuseoSlab100" horiz-adv-x="1691" >
<font-face units-per-em="2048" ascent="1536" descent="-512" />
<missing-glyph horiz-adv-x="512" />
<glyph unicode=" "  horiz-adv-x="512" />
<glyph unicode="&#x09;" horiz-adv-x="512" />
<glyph unicode="&#xa0;" horiz-adv-x="512" />
<glyph unicode="!" horiz-adv-x="448" d="M166 0v125h121v-125h-121zM180 358v1076h88v-1076h-88z" />
<glyph unicode="&#x22;" horiz-adv-x="600" d="M150 1061v391h88v-391h-88zM362 1061v391h89v-391h-89z" />
<glyph unicode="#" horiz-adv-x="1488" d="M100 408l15 81h311l80 453h-311l14 82h311l72 410h88l-72 -410h387l72 410h88l-72 -410h306l-15 -82h-305l-80 -453h305l-14 -81h-305l-72 -408h-88l72 408h-387l-72 -408h-88l72 408h-312zM514 489h387l80 453h-387z" />
<glyph unicode="$" horiz-adv-x="1054" d="M100 184l60 68q51 -47 102 -80q127 -80 281 -80q137 0 228 79t91 204q0 84 -54 145.5t-137 95.5l-178 76q-95 41 -178.5 83t-137.5 120t-54 182q0 133 102.5 231.5t270.5 114.5v226h88v-224q143 -8 247 -67q47 -25 87 -64l-48 -73q-37 33 -86 61q-106 59 -229 59 q-154 0 -247 -76.5t-93 -185.5q0 -88 54.5 -152.5t137.5 -99.5l178 -75q95 -41 178 -81t137 -115t54 -177q0 -150 -101 -254.5t-269 -116.5v-221h-88v221q-162 10 -293 94q-64 39 -103 82z" />
<glyph unicode="%" horiz-adv-x="1400" d="M106 0l1088 1434h106l-1087 -1434h-107zM111 1189.5q0 110.5 77.5 189.5t188 79t189.5 -79t79 -189.5t-79 -188t-189.5 -77.5t-188 77.5t-77.5 188zM199 1190q0 -80 50 -132t128 -52t129 53t51 131q0 80 -51 133t-129 53t-128 -53t-50 -133zM758 241.5 q0 110.5 77.5 189.5t188.5 79t189.5 -79t78.5 -189.5t-78.5 -188.5t-189.5 -78t-188.5 78t-77.5 188.5zM846 242q0 -80 50 -132.5t128 -52.5t129 53.5t51 131.5q0 80 -51 133t-129 53t-128 -53t-50 -133z" />
<glyph unicode="&#x26;" horiz-adv-x="1347" d="M123 391q0 133 71.5 241.5t198.5 143.5v4q-51 18 -102 64q-104 96 -105 258q0 158 117 257t322 99q41 0 98 -10q39 -8 53 -10l-28 -78l-46 8q-35 8 -84 8q-147 0 -243 -73.5t-96 -198.5q0 -47 12 -90t46 -91.5t109.5 -78t188.5 -29.5h369v209h88v-209h198v-82h-198v-229 q0 -264 -128 -396.5t-350 -132.5q-215 0 -353 118t-138 298zM215 395q0 -143 107.5 -238.5t291.5 -95.5q389 0 390 443v229h-371q-207 0 -312.5 -91t-105.5 -247z" />
<glyph unicode="'" horiz-adv-x="387" d="M150 1061v391h88v-391h-88z" />
<glyph unicode="(" horiz-adv-x="587" d="M164 686q0 428 225 799h90q-231 -389 -231 -801q0 -473 231 -879h-90q-225 398 -225 881z" />
<glyph unicode=")" horiz-adv-x="589" d="M111 -195q231 406 231 879q0 412 -231 801h90q225 -371 225 -799q0 -483 -225 -881h-90z" />
<glyph unicode="*" horiz-adv-x="974" d="M104 1122l27 86l318 -110l-11 336h97l-11 -336l320 108l28 -84l-321 -96v-4l201 -266l-72 -54l-191 275h-4l-190 -272l-74 51l203 266v4z" />
<glyph unicode="+" horiz-adv-x="1228" d="M86 539v82h485v538h88v-538h484v-82h-484v-539h-88v539h-485z" />
<glyph unicode="," horiz-adv-x="493" d="M61 -274l138 399h114l-166 -399h-86z" />
<glyph unicode="-" horiz-adv-x="1081" d="M258 539v82h565v-82h-565z" />
<glyph unicode="." horiz-adv-x="485" d="M180 0v129h125v-129h-125z" />
<glyph unicode="/" horiz-adv-x="806" d="M100 -86l518 1602h91l-519 -1602h-90z" />
<glyph unicode="0" horiz-adv-x="1257" d="M145 716.5q0 741.5 483.5 741.5t483.5 -741.5t-483.5 -741.5t-483.5 741.5zM238 717q0 -147 18 -261t61 -206t122 -141.5t189.5 -49.5t189.5 49.5t122 141.5t61.5 205.5t18.5 261.5q0 657 -391 657t-391 -657z" />
<glyph unicode="1" horiz-adv-x="876" d="M100 0v82h326v1167q0 10 1 26.5t1 22.5v23h-4q0 -2 -14 -21q-4 -6 -24.5 -28.5t-37.5 -38.5l-170 -170l-61 59l309 312h88v-1352h317v-82h-731z" />
<glyph unicode="2" horiz-adv-x="1165" d="M117 76q0 100 42 187t109.5 150.5t149.5 122.5l163 114q81 56 148.5 114.5t109.5 135.5t42 165q0 133 -92.5 221t-241.5 88q-141 0 -260 -102q-57 -49 -88 -105l-66 45q37 68 100 123q131 123 316 123q201 0 312.5 -114.5t111.5 -278.5q0 -100 -42 -186t-109.5 -148.5 t-148.5 -121.5l-162 -113q-81 -55 -148.5 -113.5t-109.5 -135.5t-42 -165h750v207h86v-289h-924q-6 41 -6 76z" />
<glyph unicode="3" horiz-adv-x="1128" d="M98 174l66 66q41 -47 104 -90q129 -90 281 -91q141 0 249.5 100.5t108.5 254.5q0 158 -113.5 250t-269.5 92q-49 0 -67 -2q-10 -2 -29 -2l-27 65l422 494q12 16 29 28q10 10 16 13v4q-16 0 -22 -2q-14 -2 -39 -2h-555v-207h-86v289h823v-62l-463 -534q74 0 149 -19.5 t151.5 -64.5t124.5 -133.5t48 -206.5q0 -182 -134 -310.5t-320 -128.5q-162 0 -326 101q-70 45 -121 98z" />
<glyph unicode="4" horiz-adv-x="1177" d="M61 410v61l744 963h82v-942h213v-82h-213v-410h-88v410h-738zM184 492h615v722q0 27 4 56q2 8 2 24h-4q-4 -12 -13 -20q-12 -23 -32 -45l-572 -733v-4z" />
<glyph unicode="5" horiz-adv-x="1124" d="M106 162l68 59q37 -47 84 -80q115 -82 258 -82q166 0 281.5 112t115.5 261q0 174 -110.5 279.5t-280.5 105.5q-104 0 -203 -43q-47 -23 -81 -45l-66 23l82 682h666v-289h-86v207h-502l-56 -459l-8 -39l-4 -18h4q33 18 72 32q94 33 186 33q203 0 341.5 -132t138.5 -325 q0 -195 -143.5 -332t-348.5 -137q-172 0 -307 95q-64 43 -101 92z" />
<glyph unicode="6" horiz-adv-x="1193" d="M137 645q0 139 36 276.5t105.5 260.5t193.5 199.5t282 76.5q86 0 180 -28q33 -10 70 -29l-43 -80q-27 14 -60 27q-72 27 -151 26q-160 0 -278 -102.5t-174 -246.5t-69 -312h4q59 92 168 144t238 52q193 0 316.5 -125t123.5 -331q0 -223 -127 -350.5t-313 -127.5 q-231 0 -366.5 192.5t-135.5 477.5zM238 539q0 -166 113.5 -323t285.5 -157q162 0 256 110t94 284q0 170 -97 271t-255 101q-160 0 -278.5 -92t-118.5 -194z" />
<glyph unicode="7" horiz-adv-x="1069" d="M88 1145v289h940v-62l-680 -1372h-92l635 1294l24 43l11 15v4q-14 0 -21 -2q-14 -2 -47 -2h-684v-207h-86z" />
<glyph unicode="8" horiz-adv-x="1208" d="M133 401q0 90 33 170t82 130.5t79.5 75t53.5 36.5q-190 115 -191 293q0 150 111 251t313 101q195 0 309.5 -100.5t114.5 -261.5q0 -217 -186 -404q217 -119 217 -309q0 -170 -134 -289t-327 -119q-190 0 -332.5 116.5t-142.5 309.5zM225 406q0 -152 115 -249.5t264 -97.5 q145 0 259 91.5t114 222.5q0 63 -25.5 112.5t-85 90t-108.5 64.5t-148 66l-147 64q-238 -147 -238 -364zM283 1108q0 -51 22.5 -95t51 -74t87 -62.5t97.5 -50l115 -49.5l112 -46q20 14 57 57t79 131.5t42 172.5q0 129 -93 205.5t-241 76.5q-152 0 -240.5 -76.5t-88.5 -189.5 z" />
<glyph unicode="9" horiz-adv-x="1193" d="M115 981q0 223 127 350t313 127q231 0 366.5 -192.5t135.5 -477.5q0 -139 -36 -276t-105.5 -260t-193.5 -200t-282 -77q-86 0 -180 29q-33 10 -70 29l43 80q27 -14 60 -27q72 -27 151 -27q160 0 278 102.5t174 247t69 312.5h-4q-61 -86 -171 -138.5t-235 -52.5 q-190 0 -315 124t-125 327zM207 981q0 -166 98 -266.5t254 -100.5q160 0 278.5 89.5t118.5 191.5q0 166 -113.5 322.5t-285.5 156.5q-162 0 -256 -109.5t-94 -283.5z" />
<glyph unicode=":" horiz-adv-x="620" d="M248 0v129h125v-129h-125zM248 895v129h125v-129h-125z" />
<glyph unicode=";" horiz-adv-x="626" d="M145 -274l117 399h115l-146 -399h-86zM250 895v129h125v-129h-125z" />
<glyph unicode="&#x3c;" horiz-adv-x="1228" d="M141 543v73l899 404v-98l-772 -340v-4l772 -340v-99z" />
<glyph unicode="=" horiz-adv-x="1228" d="M147 375v82h934v-82h-934zM147 702v82h934v-82h-934z" />
<glyph unicode="&#x3e;" horiz-adv-x="1228" d="M186 139v99l772 340v4l-772 340v98l899 -404v-73z" />
<glyph unicode="?" horiz-adv-x="911" d="M90 1356q43 33 84 51q106 51 221 51q174 0 283.5 -99t109.5 -253q0 -92 -37.5 -168t-93.5 -127l-109 -100q-54 -49 -92 -116t-38 -146v-91h-88v91q0 92 38 168.5t91 130.5l107 103q54 50 92 115.5t38 141.5q0 113 -84 188.5t-215 75.5q-96 0 -186 -43l-74 -43zM313 0v125 h121v-125h-121z" />
<glyph unicode="@" horiz-adv-x="1542" d="M109 500q0 311 208.5 528t524.5 217q219 0 334.5 -106.5t115.5 -255.5v-705h144v-82h-543q-164 0 -279.5 117t-115.5 281q0 166 115.5 283.5t279.5 117.5h307q-6 111 -94 189.5t-264 78.5q-274 0 -457.5 -193.5t-183.5 -472t181 -470t447 -191.5v-86q-299 0 -509.5 218.5 t-210.5 531.5zM590 493.5q0 -131.5 91 -223.5t222 -92h297v635h-293q-133 0 -225 -94t-92 -225.5z" />
<glyph unicode="A" horiz-adv-x="1454" d="M20 0v82h154l506 1352h94l506 -1352h154v-82h-422v82h174l-156 414h-608l-154 -414h174v-82h-422zM453 578h546l-249 669q-2 6 -7.5 25.5t-9.5 27.5q-4 16 -4 25h-4q0 -8 -4 -25q-2 -6 -7 -24.5t-9 -28.5z" />
<glyph unicode="B" horiz-adv-x="1351" d="M109 0v82h194v1270h-194v82h639q147 0 243 -54q70 -39 113 -120.5t43 -186.5q0 -219 -186 -311v-4q109 -29 176 -127.5t67 -231.5q0 -127 -61.5 -226t-161.5 -140q-78 -33 -215 -33h-657zM391 82h375q106 0 172 27q80 33 127 108.5t47 177.5q0 145 -88 231.5t-229 86.5 h-404v-631zM391 795h391q123 0 198 75.5t75 204.5q0 158 -115 234q-70 43 -192 43h-357v-557z" />
<glyph unicode="C" horiz-adv-x="1515" d="M121 727q0 313 207 522t514 209q102 0 213.5 -23.5t210 -92t98.5 -169.5v-135h-90v115q0 74 -77 126t-171 73.5t-182 21.5q-268 0 -449.5 -185t-181.5 -462q0 -281 182.5 -474.5t454.5 -193.5q55 0 126 12.5t145.5 36t124.5 68.5t50 103v112h90v-133q0 -72 -55 -129 t-140 -89t-173 -48.5t-168 -16.5q-315 0 -522 218.5t-207 533.5z" />
<glyph unicode="D" horiz-adv-x="1576" d="M109 0v82h194v1270h-194v82h598q184 0 309 -39q205 -68 318.5 -245t113.5 -435q0 -268 -123 -444.5t-346 -239.5q-111 -31 -272 -31h-598zM391 82h301q156 0 264 33q188 55 294 211.5t106 390.5q0 227 -99.5 383.5t-279.5 216.5q-102 35 -285 35h-301v-1270z" />
<glyph unicode="E" horiz-adv-x="1261" d="M109 0v82h194v1270h-194v82h989v-267h-86v185h-621v-588h572v-82h-572v-600h662v197h86v-279h-1030z" />
<glyph unicode="F" horiz-adv-x="1136" d="M109 0v82h194v1270h-194v82h938v-277h-86v195h-570v-598h549v-82h-549v-590h205v-82h-487z" />
<glyph unicode="G" horiz-adv-x="1568" d="M123 716.5q0 319.5 204.5 530.5t534.5 211q201 0 366 -77.5t165 -204.5v-138h-90v109q0 72 -72 125t-170 77.5t-203 24.5q-289 0 -466 -187.5t-177 -471.5q0 -283 178 -469.5t459 -186.5q66 0 141.5 11.5t156.5 36t134 73.5t53 115v256h-317v82h405v-348 q0 -80 -56 -142.5t-145 -97.5t-182.5 -52.5t-181.5 -17.5q-326 0 -531.5 211t-205.5 530.5z" />
<glyph unicode="H" d="M109 0v82h194v1270h-194v82h477v-82h-195v-592h909v592h-194v82h477v-82h-194v-1270h194v-82h-477v82h194v596h-909v-596h195v-82h-477z" />
<glyph unicode="I" horiz-adv-x="694" d="M109 0v82h194v1270h-194v82h477v-82h-195v-1270h195v-82h-477z" />
<glyph unicode="J" horiz-adv-x="1095" d="M66 383v53h88v-39q0 -147 76.5 -242.5t218.5 -95.5q121 0 207.5 82t86.5 256v955h-227v82h490v-82h-175v-969q0 -209 -111.5 -308.5t-271 -99.5t-271 99.5t-111.5 308.5z" />
<glyph unicode="K" horiz-adv-x="1323" d="M109 82h194v1270h-194v82h477v-82h-195v-557h232l387 557h-150v82h408v-82h-152l-418 -594v-4l17 -15q27 -27 43 -57l325 -541q37 -59 113 -59h72v-82h-72q-86 0 -121 20.5t-76 88.5l-321 536q-39 68 -119 68h-168v-631h195v-82h-477v82z" />
<glyph unicode="L" horiz-adv-x="1183" d="M109 0v82h194v1270h-194v82h477v-82h-195v-1270h639v246h86v-328h-1007z" />
<glyph unicode="M" horiz-adv-x="1900" d="M74 82h194l101 1270h-197v82h289l461 -996l20 -47l6 -20h4l9 20l18 47l461 996h289v-82h-197l100 -1270h195v-82h-477v82h194l-88 1110v55q0 20 2 31h-4q-4 -20 -8 -31l-19 -49l-432 -922h-90l-432 922l-18 49q-4 10 -9 31h-4q2 -10 2 -31v-55l-88 -1110h195v-82h-477v82 z" />
<glyph unicode="N" horiz-adv-x="1685" d="M109 0v82h194v1270h-194v82h274l893 -1225l9 -14q5 -8 10 -19l8 -14q10 -12 12 -27h4l-4 31q-2 16 -2 53v1133h-195v82h477v-82h-194v-1352h-82l-891 1227l-27 47q-10 12 -12 26h-4l4 -30q4 -35 2 -53v-1135h195v-82h-477z" />
<glyph unicode="O" d="M121 727q0 307 212 519t513 212t513 -212t212 -519q0 -313 -212 -532.5t-513 -219.5t-513 219.5t-212 532.5zM213 727q0 -283 184.5 -475.5t448.5 -192.5t448.5 192.5t184.5 475.5q0 274 -183.5 460.5t-449.5 186.5t-449.5 -186.5t-183.5 -460.5z" />
<glyph unicode="P" horiz-adv-x="1290" d="M109 0v82h194v1270h-194v82h634q160 0 248 -43q102 -49 160.5 -146.5t58.5 -228.5q0 -143 -69.5 -246.5t-188.5 -146.5q-80 -29 -209 -29h-352v-512h195v-82h-477zM391 676h348q113 0 187 26q193 76 192 314q0 217 -170 299q-84 37 -209 37h-348v-676z" />
<glyph unicode="Q" d="M121 725q0 309 210 521t511 212q305 0 517 -212t212 -521q0 -299 -189 -510l185 -190l-58 -56l-182 189q-205 -182 -485 -183q-299 0 -510 218.5t-211 531.5zM213 725q0 -281 181 -473.5t448 -192.5q250 0 426 160l-226 234l58 55l223 -232q156 188 156 449 q0 276 -183.5 462.5t-453.5 186.5q-266 0 -447.5 -186.5t-181.5 -462.5z" />
<glyph unicode="R" horiz-adv-x="1370" d="M109 0v82h194v1270h-194v82h604q147 0 245 -33q221 -86 222 -348q0 -168 -92.5 -278.5t-249.5 -131.5v-4l12 -12q16 -16 29 -39l270 -459q18 -29 39.5 -38t64.5 -9h39v-82h-39q-92 0 -122.5 18.5t-73.5 90.5l-256 432q-33 57 -64.5 75.5t-105.5 18.5h-240v-553h195v-82 h-477zM391 717h379q141 0 229 91t88 241q0 209 -176 274q-70 29 -202 29h-318v-635z" />
<glyph unicode="S" horiz-adv-x="1132" d="M129 248v125h90v-105q0 -94 101.5 -151.5t240.5 -57.5q158 0 255 78t97 217q0 74 -28.5 131.5t-87 99.5t-112.5 67.5t-142 56.5q-190 74 -256 122q-129 96 -129 265q0 170 117.5 266t297.5 96q158 0 277 -57.5t119 -153.5v-137h-90v109q0 70 -95.5 112.5t-210.5 42.5 q-141 0 -232 -70.5t-91 -197.5q0 -55 20.5 -100t46 -74t81 -59.5t90.5 -45.5l110 -43q203 -82 272 -133q135 -104 136 -284q0 -174 -124 -283t-321 -109q-164 0 -298 72t-134 201z" />
<glyph unicode="T" horiz-adv-x="1316" d="M70 1110v324h1177v-324h-86v242h-459v-1270h195v-82h-477v82h194v1270h-458v-242h-86z" />
<glyph unicode="U" horiz-adv-x="1607" d="M74 1352v82h477v-82h-195v-826q0 -180 70 -288q115 -178 377 -179q270 0 381 187q68 117 67 284v822h-194v82h477v-82h-195v-830q0 -197 -84 -329q-141 -217 -450 -218q-152 0 -271.5 57.5t-187.5 164.5q-78 125 -78 325v830h-194z" />
<glyph unicode="V" horiz-adv-x="1429" d="M25 1352v82h419v-82h-170l418 -1174q2 -8 6 -26.5t9 -26.5l6 -25h6l6 25q4 8 8 26.5t6 26.5l418 1174h-170v82h420v-82h-156l-485 -1352h-102l-486 1352h-153z" />
<glyph unicode="W" horiz-adv-x="2025" d="M35 1352v82h418v-82h-172l288 -1162q6 -20 11 -53l4 -24h6l6 24q4 8 7 26.5t5 26.5l357 1244h96l356 -1244q2 -8 5 -26.5t8 -26.5l6 -24h6l4 24q4 33 10 53l289 1162h-172v82h418v-82h-152l-346 -1352h-111l-352 1227q-6 20 -10 53l-4 25h-6l-4 -25q-6 -39 -11 -53 l-352 -1227h-111l-346 1352h-151z" />
<glyph unicode="X" horiz-adv-x="1277" d="M51 0v82h150l379 639l-381 631h-142v82h418v-82h-174l313 -516q8 -12 21 -37q2 -4 5 -8.5t3 -6.5h4l8 17l19 35l303 516h-168v82h416v-82h-150l-385 -645l381 -625h150v-82h-418v82h166l-310 512l-20 37q-2 4 -5 8t-3 6h-4l-6 -16l-21 -35l-301 -512h168v-82h-416z" />
<glyph unicode="Y" horiz-adv-x="1300" d="M20 1352v82h418v-82h-170l353 -588l18 -33q4 -6 8 -18h4l8 16l21 35l354 588h-170v82h416v-82h-145l-441 -729v-541h195v-82h-477v82h194v541l-440 729h-146z" />
<glyph unicode="Z" horiz-adv-x="1253" d="M121 0v70l831 1214q8 12 21.5 28.5t17.5 20.5l17 19v4q-14 0 -23 -2q-14 -2 -55 -2h-713v-242h-86v324h983v-70l-831 -1214q-8 -12 -21.5 -29t-17.5 -21l-17 -18v-4q16 0 25 2q14 2 53 2h742v246h86v-328h-1012z" />
<glyph unicode="[" horiz-adv-x="571" d="M219 -195v1680h221v-82h-133v-1516h133v-82h-221z" />
<glyph unicode="\" horiz-adv-x="806" d="M98 1516h90l519 -1602h-91z" />
<glyph unicode="]" horiz-adv-x="571" d="M131 -113h133v1516h-133v82h221v-1680h-221v82z" />
<glyph unicode="^" horiz-adv-x="1228" d="M158 516l403 918h66l403 -918h-94l-342 795l-342 -795h-94z" />
<glyph unicode="_" horiz-adv-x="1097" d="M41 0h1016v-82h-1016v82z" />
<glyph unicode="`" horiz-adv-x="1042" d="M354 1763h131l193 -227h-111z" />
<glyph unicode="a" horiz-adv-x="1093" d="M86 279q0 346 635 346h67v45q0 297 -272 297q-106 0 -217 -49q-41 -18 -84 -52l-49 70q37 31 92 57q106 55 260 56q356 0 356 -377v-547q0 -45 46 -45h122v-80h-135q-63 0 -91 26.5t-28 86.5v22q0 35 5 68l4 24h-4q-27 -70 -80 -125q-115 -127 -283 -127 q-137 0 -240.5 78.5t-103.5 225.5zM176 289q0 -96 67.5 -165t186.5 -69q113 0 197 66.5t122.5 164t38.5 203.5v56h-65q-547 0 -547 -256z" />
<glyph unicode="b" horiz-adv-x="1198" d="M0 1354v80h281v-533q0 -31 -5 -59l-4 -25h4q27 63 80 117q115 115 291 115q203 0 323 -147.5t120 -389.5t-128 -389.5t-331 -147.5q-158 0 -275 117q-53 53 -80 115h-4l4 -25q4 -33 5 -65v-117h-86v1354h-195zM279 510q0 -184 93 -317.5t263 -133.5q158 0 261 122 t103 331q0 205 -99 329t-257 124q-156 0 -260 -114t-104 -341z" />
<glyph unicode="c" horiz-adv-x="1114" d="M104 510q0 240 155 389.5t374 149.5q66 0 142.5 -17.5t147 -69t70.5 -126.5v-99h-86v80q0 68 -92 108t-182 40q-184 0 -311 -126t-127 -329q0 -201 127 -326t311 -125q147 0 256 74q53 35 86 74l45 -72q-41 -43 -98 -80q-127 -80 -289 -80q-223 0 -376 148.5t-153 386.5z " />
<glyph unicode="d" horiz-adv-x="1239" d="M109 512q0 242 128 389.5t330 147.5q162 0 275 -113q53 -53 80 -113h4l-4 25q-4 29 -4 59v447h-195v80h281v-1309q0 -45 45 -45h122v-80h-135q-63 0 -90.5 26.5t-27.5 86.5v22q0 25 4 53l4 19h-4q-27 -61 -80 -115q-117 -117 -291 -117q-203 0 -322.5 147.5t-119.5 389.5 zM199 512q0 -205 99 -329t257 -124q156 0 260.5 114t104.5 341q0 184 -93.5 317.5t-263.5 133.5q-158 0 -261 -122t-103 -331z" />
<glyph unicode="e" horiz-adv-x="1124" d="M106 510q0 248 145.5 393.5t352.5 145.5q201 0 309.5 -134.5t108.5 -332.5q0 -27 -2 -37q-2 -6 -2 -19h-821q0 -215 126 -341t312 -126q123 0 233 66q47 27 84 63l47 -71q-41 -37 -98 -70q-131 -72 -266 -72q-223 0 -376 148.5t-153 386.5zM203 606h729 q-8 180 -100.5 271.5t-229.5 91.5q-147 0 -258.5 -95.5t-140.5 -267.5z" />
<glyph unicode="f" horiz-adv-x="688" d="M82 944v80h194v55q0 113 33 191t85 111.5t96.5 46t89.5 12.5q39 0 53 -2l20 -4v-80l-18 4q-14 2 -49 2t-68 -9.5t-70.5 -36t-61.5 -86t-24 -147.5v-57h273v-80h-273v-864h216v-80h-486v80h184v864h-194z" />
<glyph unicode="g" horiz-adv-x="1222" d="M111 528q0 240 119.5 380.5t320.5 140.5q123 0 220 -48.5t136 -146.5h4q0 6 -2 12q-4 20 -4 39q0 63 26.5 91t92.5 28h152v-80h-140q-45 0 -45 -45v-893q0 -219 -134 -327.5t-335 -108.5q-166 0 -321 80l41 76q39 -23 82 -37q96 -35 192 -35q176 0 282.5 88t106.5 264 v119q0 31 4 59l4 25h-4q-106 -209 -344 -209q-201 0 -327.5 145t-126.5 383zM201 528q0 -205 101 -324.5t269 -119.5q152 0 244 105.5t92 338.5q0 436 -356 437q-166 0 -258 -114t-92 -323z" />
<glyph unicode="h" horiz-adv-x="1318" d="M47 1354v80h281v-590q0 -31 -4 -60l-5 -24h5q33 96 148.5 192.5t285.5 96.5q190 0 264 -101.5t74 -298.5v-569h184v-80h-270v618q0 61 -4.5 105.5t-18.5 93.5t-40.5 79t-75 49.5t-113.5 19.5q-180 0 -305 -132.5t-125 -332.5v-420h184v-80h-455v80h185v1274h-195z" />
<glyph unicode="i" horiz-adv-x="604" d="M82 944v80h280v-944h185v-80h-455v80h184v864h-194zM264 1284v150h111v-150h-111z" />
<glyph unicode="j" horiz-adv-x="520" d="M-51 -336q6 0 12 -2t33 -2q39 0 74.5 10.5t77.5 38t68 92t26 156.5v987h-195v80h281v-1065q0 -96 -25 -169t-59.5 -111.5t-81.5 -62.5t-84 -30t-76 -6q-31 0 -37 2t-14 2v80zM227 1284v150h111v-150h-111z" />
<glyph unicode="k" horiz-adv-x="1099" d="M47 1354v80h281v-813h172l276 323h-160v80h416v-80h-145l-307 -354v-4q20 0 67 -78l230 -383q16 -29 33.5 -37t64.5 -8h76v-80h-80q-80 0 -112 19.5t-75 89.5l-233 387q-18 29 -40 37t-65 8h-118v-461h184v-80h-455v80h185v1274h-195z" />
<glyph unicode="l" horiz-adv-x="518" d="M4 1354v80h279v-1201q0 -158 120 -157q39 0 45.5 2t16.5 2l-2 -80q-14 0 -23 -2q-14 -2 -51 -2q-193 0 -192 229v1129h-193z" />
<glyph unicode="m" horiz-adv-x="2033" d="M82 944v80h162q63 0 91 -26.5t28 -86.5v-67q0 -31 -5 -60l-4 -24h4q37 115 155 202t239 87q152 0 229.5 -70t93.5 -209h4q47 113 154.5 196t234.5 83q188 0 265 -101.5t77 -298.5v-569h185v-80h-271v618q0 80 -9 137.5t-35.5 108.5t-79 78t-132.5 27 q-162 0 -271.5 -143.5t-109.5 -317.5v-428h185v-80h-271v618q0 61 -4 105.5t-18 93.5t-41 80t-74 51.5t-112 20.5q-162 0 -276 -142.5t-114 -318.5v-428h185v-80h-455v80h184v819q0 45 -45 45h-149z" />
<glyph unicode="n" horiz-adv-x="1353" d="M82 944v80h162q63 0 90.5 -26.5t27.5 -86.5v-67q0 -31 -4 -60l-4 -24h4q33 96 149 192.5t286 96.5q190 0 264 -101.5t74 -298.5v-569h184v-80h-271v618q0 61 -4 105.5t-18 93.5t-41 79t-75 49.5t-113 19.5q-180 0 -305.5 -135.5t-125.5 -321.5v-428h185v-80h-455v80h184 v819q0 45 -45 45h-149z" />
<glyph unicode="o" horiz-adv-x="1265" d="M102 518q0 223 155 377t376 154t375.5 -154t154.5 -377q0 -227 -154.5 -385t-375.5 -158t-376 158t-155 385zM193 518q0 -195 128 -327t312 -132t312 132.5t128 326.5q0 188 -128 317.5t-312 129.5t-312 -129.5t-128 -317.5z" />
<glyph unicode="p" horiz-adv-x="1245" d="M47 944v80h162q63 0 91 -26.5t28 -86.5v-10q0 -45 -2 -59l-4 -23h4q27 63 75 115q111 115 293 115q203 0 323 -147.5t120 -389.5t-127 -389.5t-328 -147.5q-162 0 -279 117q-53 53 -79 115h-5l5 -25q4 -33 4 -65v-447h184v-80h-455v80h185v1229q0 45 -45 45h-150z M326 510q0 -182 96 -316.5t260 -134.5q158 0 261.5 122t103.5 331q0 205 -99.5 329t-257.5 124q-156 0 -260 -114t-104 -341z" />
<glyph unicode="q" horiz-adv-x="1198" d="M109 512q0 242 128 389.5t330 147.5q162 0 273 -111q49 -49 80 -113h4q0 14 -2 23q-4 29 -4 59v117h86v-1354h184v-80h-455v80h185v447q0 33 4 65l4 25h-4q-27 -61 -80 -115q-117 -117 -291 -117q-203 0 -322.5 147.5t-119.5 389.5zM199 512q0 -205 99 -329t257 -124 q156 0 260.5 114t104.5 341q0 184 -93.5 318.5t-263.5 134.5q-158 0 -261 -123t-103 -332z" />
<glyph unicode="r" horiz-adv-x="763" d="M74 944v80h162q63 0 90.5 -26.5t27.5 -86.5v-71q0 -45 -2 -60q-2 -8 -2 -24h4q41 125 124 200.5t200 75.5q31 0 41 -2l18 -4v-86q-8 0 -14 2q-8 2 -33 2q-113 0 -192.5 -85t-111.5 -194.5t-32 -222.5v-362h164v-80h-414v80h164v819q0 45 -45 45h-149z" />
<glyph unicode="s" horiz-adv-x="942" d="M100 305h86v-78q0 -82 93.5 -125t204 -43t189.5 50.5t79 136.5q0 39 -18.5 70.5t-41 53t-70 46t-76.5 36.5l-89 33q-76 31 -118 50.5t-95.5 56.5t-78 84t-24.5 108q0 123 99.5 194t232.5 71q117 0 222.5 -50.5t105.5 -144.5v-113h-86v84q0 63 -72 101.5t-166 38.5 q-102 0 -174 -46.5t-72 -127.5q0 -37 17.5 -68t38 -51.5t66.5 -44t73 -34.5l86 -34q78 -31 122 -51.5t99 -57t82 -86t27 -110.5q0 -125 -100.5 -202t-266.5 -77q-152 0 -263.5 65.5t-111.5 176.5v88z" />
<glyph unicode="t" horiz-adv-x="647" d="M35 944v80h194v285h86v-285h269v-80h-269v-567q0 -94 26 -159.5t67 -95.5t76.5 -40t74.5 -10q29 0 35 2t12 2v-80q-8 0 -14 -2t-37 -2q-39 0 -76 6t-84 29.5t-81.5 62.5t-59.5 111.5t-25 169.5v573h-194z" />
<glyph unicode="u" horiz-adv-x="1312" d="M37 944v80h280v-618q0 -61 4.5 -105.5t18.5 -93.5t41 -79t75 -49.5t113 -19.5q184 0 302 138.5t118 326.5v420h-194v80h280v-901q0 -45 45 -45h123v-78h-135q-63 0 -91 26.5t-28 86.5v57q0 45 2 59q2 8 2 25h-4q-33 -96 -144.5 -187.5t-275.5 -91.5q-182 0 -260 98.5 t-78 301.5v569h-194z" />
<glyph unicode="v" horiz-adv-x="1122" d="M16 944v80h394v-80h-162l293 -766q4 -6 8 -22.5t6 -22.5q4 -12 4 -20h4q0 8 4 20q2 6 6.5 22.5t8.5 22.5l292 766h-161v80h393v-80h-139l-365 -944h-82l-364 944h-140z" />
<glyph unicode="w" horiz-adv-x="1728" d="M18 1024h394v-80h-166l250 -772q6 -12 10 -45l4 -21h4l4 21q4 25 12 45l287 848h94l287 -848q8 -20 12 -45l4 -21h5l4 21q2 18 10 45l250 772h-166v80h393v-80h-135l-315 -944h-86l-289 842q-2 8 -5 22.5t-8 22.5l-6 22h-4l-6 -22q-4 -8 -7 -22.5t-5 -22.5l-289 -842h-86 l-315 944h-136v80z" />
<glyph unicode="x" horiz-adv-x="1114" d="M53 0v80h170l279 455l-254 409h-182v80h231l227 -373l23 -35q4 -6 8 -18h4l8 16l23 39l229 371h230v-80h-181l-258 -412l283 -452h168v-80h-219l-254 416l-21 37q-10 14 -10 16h-4l-8 -16q0 -2 -8.5 -16.5t-14.5 -22.5l-252 -414h-217z" />
<glyph unicode="y" horiz-adv-x="1148" d="M16 944v80h396v-80h-162l305 -780q8 -18 12 -41l4 -17h4q0 4 5 17q4 6 8 20.5t6 20.5l305 780h-162v80h396v-80h-142l-463 -1159q-39 -98 -108.5 -156.5t-163.5 -58.5q-61 0 -119 27q-23 12 -47 28l39 76q14 -16 37 -25q39 -25 90 -24q68 0 120 52t83 132l69 168 l-372 940h-140z" />
<glyph unicode="z" horiz-adv-x="1036" d="M104 0v70l650 815q20 29 37 43l14 14v4h-23q-6 0 -23.5 -1t-29.5 -1h-522v-194h-84v274h799v-70l-652 -815q-20 -29 -37 -43l-14 -14v-4q6 2 23 2h53h543v194h84v-274h-818z" />
<glyph unicode="{" horiz-adv-x="624" d="M80 616v82q47 8 88 39q86 66 86 205v166q0 98 23.5 172t55.5 112t75 59.5t70.5 26.5t53.5 5h19v-80h-12q-27 0 -52.5 -8t-62.5 -35t-59.5 -91.5t-22.5 -158.5v-190q0 -125 -80 -205q-37 -37 -82 -56v-4q43 -16 82 -53q80 -76 80 -207v-217q0 -94 22.5 -158.5t59.5 -91 t62.5 -35t52.5 -8.5h12v-80q0 -2 -4 -2h-15q-27 0 -54 5.5t-70 27t-75 59t-55.5 111.5t-23.5 174v193q0 139 -86 205q-41 30 -88 38z" />
<glyph unicode="|" horiz-adv-x="522" d="M217 -317v1925h88v-1925h-88z" />
<glyph unicode="}" horiz-adv-x="624" d="M74 -115h12q27 0 52.5 8.5t62.5 35t59.5 91t22.5 158.5v217q0 129 82 207q39 35 79 53v4q-43 18 -79 56q-82 82 -82 205v190q0 94 -22.5 158.5t-59.5 91t-62.5 35t-52.5 8.5h-12v80h18q29 0 56.5 -5t70.5 -26.5t74 -59.5t54.5 -112t23.5 -172v-166q0 -137 88 -205 q41 -31 86 -39v-82q-45 -8 -86 -38q-88 -68 -88 -205v-193q0 -100 -23.5 -174t-54.5 -111.5t-74 -59t-70.5 -27t-56.5 -5.5h-14q-4 0 -4 2v80z" />
<glyph unicode="~" horiz-adv-x="1218" d="M166 436q0 152 64.5 223.5t170.5 71.5q63 0 113.5 -23.5t82.5 -56.5l61 -65q30 -33 72 -56.5t93 -23.5q63 0 100.5 43t45.5 85t8 89h82q0 -152 -64.5 -223.5t-171.5 -71.5q-63 0 -113.5 23.5t-81.5 56.5l-62 65q-30 33 -71.5 56.5t-93.5 23.5q-63 0 -100 -43t-45 -85 t-8 -89h-82z" />
<glyph unicode="&#xa1;" horiz-adv-x="428" d="M152 899v125h120v-125h-120zM170 -410v1076h88v-1076h-88z" />
<glyph unicode="&#xa2;" horiz-adv-x="1110" d="M104 716.5q0 235.5 111 395.5t317 176v170h89v-170q248 -23 378 -291l-84 -32q-113 238 -333 237q-195 0 -290 -135t-95 -350t95 -350.5t290 -135.5q221 0 333 238l84 -33q-133 -270 -378 -291v-172h-89v172q-207 18 -317.5 177t-110.5 394.5z" />
<glyph unicode="&#xa3;" horiz-adv-x="1232" d="M96 0v82h185v600h-134v82h134v332q0 156 113.5 259t289.5 103q113 0 219 -51q47 -23 82 -53l-59 -68l-68 43q-82 43 -176 43q-147 0 -230 -82t-83 -203v-323h405v-82h-405v-600h671v246h86v-328h-1030z" />
<glyph unicode="&#xa5;" horiz-adv-x="1259" d="M100 1434h101l340 -566q27 -41 59 -106l29 -55h4l29 55q33 66 59 106l340 566h100l-379 -631h222v-82h-271l-57 -98v-86h328v-82h-328v-455h-88v455h-334v82h334v86l-60 98h-274v82h225z" />
<glyph unicode="&#xa7;" horiz-adv-x="768" d="M119 -59l53 65q14 -14 39 -24q43 -25 100 -25q100 0 165 63.5t65 167.5q0 29 -2 43l-133 973h86l137 -971q4 -37 4 -51q0 -133 -92 -221t-232 -88q-66 0 -135 33q-37 19 -55 35zM139 1149q0 133 92.5 221t231.5 88q66 0 135 -33q37 -18 55 -34l-53 -66q-14 14 -39 25 q-43 25 -100 24q-100 0 -166 -63.5t-66 -167.5q0 -14 4 -43l134 -973h-86l-138 971q-4 33 -4 51z" />
<glyph unicode="&#xa8;" horiz-adv-x="1042" d="M293 1614v149h110v-149h-110zM637 1614v149h111v-149h-111z" />
<glyph unicode="&#xa9;" horiz-adv-x="1665" d="M109 717q0 311 209.5 526t510.5 215q303 0 516.5 -215t213.5 -526t-213 -526.5t-517 -215.5q-301 0 -510.5 215.5t-209.5 526.5zM201 717q0 -279 181 -467.5t447 -188.5q270 0 453.5 188.5t183.5 467.5q0 276 -183 465.5t-454 189.5q-266 0 -447 -189.5t-181 -465.5z M414 715q0 174 116.5 303t323.5 129q137 0 248 -90q55 -41 86 -90l-68 -60q-37 49 -69 76q-92 76 -195 76q-166 0 -258 -101.5t-92 -240.5t92 -240.5t258 -101.5q104 0 197 76q37 31 67 75l68 -59q-35 -49 -88 -90q-111 -90 -246 -90q-207 0 -323.5 127t-116.5 301z" />
<glyph unicode="&#xaa;" horiz-adv-x="882" d="M180 539v75h518v-75h-518zM186 973q0 227 398 227h28v8q0 170 -155 170q-59 0 -125 -28q-33 -14 -51 -31l-45 61q23 20 59 37q78 37 164 37q233 0 233 -246v-413h-80v104h-4q-16 -31 -47 -57q-63 -59 -147 -60q-90 0 -159 49.5t-69 141.5zM270 981q0 -51 38 -87t108 -36 q88 0 142 77t54 171v20h-26q-316 0 -316 -145z" />
<glyph unicode="&#xab;" horiz-adv-x="1015" d="M111 578l335 421h109l-336 -421l336 -420h-109zM438 578l336 421h109l-336 -421l336 -420h-109z" />
<glyph unicode="&#xac;" horiz-adv-x="1230" d="M147 702v82h934v-448h-86v366h-848z" />
<glyph unicode="&#xad;" horiz-adv-x="1081" d="M258 539v82h565v-82h-565z" />
<glyph unicode="&#xae;" horiz-adv-x="1665" d="M109 717q0 311 209.5 526t510.5 215q303 0 516.5 -215t213.5 -526t-213 -526.5t-517 -215.5q-301 0 -510.5 215.5t-209.5 526.5zM201 717q0 -279 181 -467.5t447 -188.5q270 0 453.5 188.5t183.5 467.5q0 276 -183 465.5t-454 189.5q-266 0 -447 -189.5t-181 -465.5z M592 307v819h272q106 0 172 -64.5t66 -172.5q0 -88 -45 -144.5t-113 -74.5v-4l6 -11q8 -8 21 -34l162 -314h-101l-174 342h-176v-342h-90zM682 727h172q72 0 114 43t42 119q0 74 -42 114.5t-114 40.5h-172v-317z" />
<glyph unicode="&#xaf;" horiz-adv-x="1042" d="M276 1610v82h490v-82h-490z" />
<glyph unicode="&#xb0;" horiz-adv-x="757" d="M113 1185.5q0 110.5 77.5 189.5t188 79t189.5 -79t79 -189.5t-79 -188t-189.5 -77.5t-188 77.5t-77.5 188zM201 1186q0 -80 50 -132.5t128 -52.5t129 53.5t51 131.5q0 80 -51 133t-129 53t-128 -53t-50 -133z" />
<glyph unicode="&#xb1;" horiz-adv-x="1228" d="M86 539v82h485v538h88v-538h484v-82h-484v-539h-88v539h-485zM127 -231h975v-82h-975v82z" />
<glyph unicode="&#xb2;" horiz-adv-x="722" d="M78 932q0 86 47 155.5t113 116.5l132 91q67 44 113.5 102.5t46.5 126.5q0 74 -52 126t-134 52q-76 0 -139 -51q-25 -20 -53 -52l-50 54q29 35 64 61q82 61 178 62q127 0 196.5 -73t69.5 -179q0 -84 -46 -150.5t-111 -110.5l-132 -87q-67 -43 -114 -102.5t-49 -133.5h393 v117h78v-191h-547q0 16 -2 23q-2 14 -2 43z" />
<glyph unicode="&#xb3;" horiz-adv-x="737" d="M68 979l57 53q23 -31 55 -55q72 -57 172 -57q80 0 145.5 60t65.5 146q0 88 -66.5 142.5t-152.5 54.5h-65l-23 49l231 273l29 28l12 10v5q-8 0 -14 -2q-29 -4 -41 -5h-285v-116h-77v190h526v-53l-264 -309q102 -6 186 -73t84 -194q0 -117 -87 -198.5t-206 -81.5t-215 67 q-38 27 -67 66z" />
<glyph unicode="&#xb4;" horiz-adv-x="1042" d="M365 1536l192 227h131l-213 -227h-110z" />
<glyph unicode="&#xb5;" horiz-adv-x="1171" d="M164 1024h86v-618q0 -61 4 -105.5t18.5 -93.5t41 -79t74.5 -49.5t114 -19.5q184 0 302 138.5t118 326.5v500h86v-1024h-86v170q0 45 2 59q2 8 2 25h-4q-35 -78 -93 -139q-127 -139 -327 -140q-123 0 -205 54q-35 20 -55 51h-4l6 -57q6 -31 6 -91v-342h-86v1434z" />
<glyph unicode="&#x3bc;" horiz-adv-x="1171" d="M164 1024h86v-618q0 -61 4 -105.5t18.5 -93.5t41 -79t74.5 -49.5t114 -19.5q184 0 302 138.5t118 326.5v500h86v-1024h-86v170q0 45 2 59q2 8 2 25h-4q-35 -78 -93 -139q-127 -139 -327 -140q-123 0 -205 54q-35 20 -55 51h-4l6 -57q6 -31 6 -91v-342h-86v1434z" />
<glyph unicode="&#xb6;" horiz-adv-x="1126" d="M92 965q0 197 144.5 333t345.5 136h430v-82h-342v-1454h-86v596q-199 0 -345.5 138t-146.5 333zM797 -102v1325h86v-1325h-86z" />
<glyph unicode="&#xb7;" horiz-adv-x="571" d="M223 522v129h125v-129h-125z" />
<glyph unicode="&#xb8;" horiz-adv-x="1042" d="M383 -332l25 -6q29 -4 59 -4q106 0 106 76q0 78 -122 78h-25l49 233l72 -10v-17l-27 -141q59 -6 99 -45t40 -94q0 -80 -53 -118t-133 -38q-33 0 -65 4l-25 4v78z" />
<glyph unicode="&#xb9;" horiz-adv-x="628" d="M80 866v74h217v645q0 31 2 45q2 6 2 19h-2l-8 -11l-27 -28l-125 -123l-53 55l211 213h78v-815h211v-74h-506z" />
<glyph unicode="&#xba;" horiz-adv-x="983" d="M156 1124q0 139 97 235.5t236.5 96.5t236.5 -96t97 -236q0 -143 -97 -241.5t-236.5 -98.5t-236.5 98.5t-97 241.5zM193 539v75h602v-75h-602zM236 1124q0 -113 73.5 -188.5t180 -75.5t180 76t73.5 188q0 111 -73.5 183.5t-180 72.5t-180 -72.5t-73.5 -183.5z" />
<glyph unicode="&#xbb;" horiz-adv-x="1015" d="M133 158l336 420l-336 421h109l336 -421l-336 -420h-109zM461 158l336 420l-336 421h108l336 -421l-336 -420h-108z" />
<glyph unicode="&#xbc;" horiz-adv-x="1878" d="M125 545v73h217v646q0 31 2 45q2 6 2 18h-2l-8 -10l-27 -29l-125 -123l-53 56l211 213h78v-816h211v-73h-506zM530 0l689 1434h88l-686 -1434h-91zM1135 248v53l454 588h64v-567h139v-74h-139v-248h-78v248h-440zM1243 322h332v358q0 23 4 55q2 10 2 29h-4 q-4 -10 -12 -23q-16 -29 -33 -47l-289 -368v-4z" />
<glyph unicode="&#xbd;" horiz-adv-x="1832" d="M109 545v73h217v646q0 31 2 45q2 6 2 18h-2l-9 -10l-26 -29l-125 -123l-53 56l211 213h77v-816h211v-73h-505zM514 0l688 1434h88l-686 -1434h-90zM1176 66q0 86 47 155.5t112 116.5l132 91q67 44 114 102.5t47 125.5q0 74 -52 126.5t-134 52.5q-76 0 -139 -52 q-25 -20 -54 -51l-49 53q29 35 64 62q82 61 178 61q127 0 196.5 -72.5t69.5 -179.5q0 -84 -46 -150.5t-112 -110.5l-132 -87q-67 -43 -114 -102.5t-49 -132.5h394v116h77v-190h-546q0 16 -2 23q-2 14 -2 43z" />
<glyph unicode="&#xbe;" horiz-adv-x="1921" d="M111 657l57 54q20 -31 55 -56q72 -57 172 -57q80 0 145.5 60.5t65.5 146.5q0 88 -66.5 142t-152.5 54h-65l-23 50l231 272l29 29l12 10v4q-8 0 -14 -2q-29 -4 -41 -4h-285v-117h-77v191h526v-54l-264 -309q100 -6 185 -72.5t85 -193.5q0 -117 -87 -199t-206 -82t-215 68 q-38 26 -67 65zM567 0l688 1434h88l-686 -1434h-90zM1171 248v53l455 588h64v-567h139v-74h-139v-248h-78v248h-441zM1280 322h332v358q0 23 4 55q2 10 2 29h-4q-4 -10 -12 -23q-16 -29 -33 -47l-289 -368v-4z" />
<glyph unicode="&#xbf;" horiz-adv-x="899" d="M115 -78q0 92 37.5 168t93.5 127l109 100q54 49 92 116t38 147v86h88v-86q0 -92 -37.5 -169t-92.5 -130l-107 -104q-53 -50 -91 -115.5t-38 -141.5q0 -113 84 -188.5t215 -75.5q96 0 186 43l74 43l47 -70q-43 -33 -84 -51q-106 -51 -221 -51q-174 0 -283.5 99t-109.5 253 zM469 899v125h121v-125h-121z" />
<glyph unicode="&#xc0;" horiz-adv-x="1454" d="M20 0v82h154l506 1352h94l506 -1352h154v-82h-422v82h174l-156 414h-608l-154 -414h174v-82h-422zM453 578h546l-249 669q-2 6 -7.5 25.5t-9.5 27.5q-4 16 -4 25h-4q0 -8 -4 -25q-2 -6 -7 -24.5t-9 -28.5zM479 1763h131l193 -227h-111z" />
<glyph unicode="&#xc1;" horiz-adv-x="1454" d="M20 0v82h154l506 1352h94l506 -1352h154v-82h-422v82h174l-156 414h-608l-154 -414h174v-82h-422zM453 578h546l-249 669q-2 6 -7.5 25.5t-9.5 27.5q-4 16 -4 25h-4q0 -8 -4 -25q-2 -6 -7 -24.5t-9 -28.5zM649 1536l193 227h131l-213 -227h-111z" />
<glyph unicode="&#xc2;" horiz-adv-x="1454" d="M20 0v82h154l506 1352h94l506 -1352h154v-82h-422v82h174l-156 414h-608l-154 -414h174v-82h-422zM453 578h546l-249 669q-2 6 -7.5 25.5t-9.5 27.5q-4 16 -4 25h-4q0 -8 -4 -25q-2 -6 -7 -24.5t-9 -28.5zM502 1536l164 227h122l164 -227h-108l-115 164h-4l-115 -164 h-108z" />
<glyph unicode="&#xc3;" horiz-adv-x="1454" d="M20 0v82h154l506 1352h94l506 -1352h154v-82h-422v82h174l-156 414h-608l-154 -414h174v-82h-422zM424 1542q0 221 172 221q51 0 92 -23.5t62.5 -50t50 -50t57.5 -23.5q84 0 84 141h90q0 -221 -172 -221q-68 0 -113 37t-78.5 73.5t-70.5 36.5q-84 0 -84 -141h-90z M453 578h546l-249 669q-2 6 -7.5 25.5t-9.5 27.5q-4 16 -4 25h-4q0 -8 -4 -25q-2 -6 -7 -24.5t-9 -28.5z" />
<glyph unicode="&#xc4;" horiz-adv-x="1454" d="M20 0v82h154l506 1352h94l506 -1352h154v-82h-422v82h174l-156 414h-608l-154 -414h174v-82h-422zM453 578h546l-249 669q-2 6 -7.5 25.5t-9.5 27.5q-4 16 -4 25h-4q0 -8 -4 -25q-2 -6 -7 -24.5t-9 -28.5zM500 1614v149h110v-149h-110zM844 1614v149h110v-149h-110z" />
<glyph unicode="&#xc5;" horiz-adv-x="1454" d="M20 0v82h154l506 1352h94l506 -1352h154v-82h-422v82h174l-156 414h-608l-154 -414h174v-82h-422zM453 578h546l-249 669q-2 6 -7.5 25.5t-9.5 27.5q-4 16 -4 25h-4q0 -8 -4 -25q-2 -6 -7 -24.5t-9 -28.5zM575 1651q0 66 44.5 109.5t107.5 43.5q66 0 111 -44t45 -109 q0 -63 -45 -106.5t-111 -43.5q-63 0 -107.5 43.5t-44.5 106.5zM655 1651q0 -33 19.5 -53.5t52.5 -20.5q35 0 55.5 20.5t20.5 53.5q0 37 -20.5 58.5t-55.5 21.5q-33 0 -52.5 -21.5t-19.5 -58.5z" />
<glyph unicode="&#xc6;" horiz-adv-x="1849" d="M20 0v82h142l520 1270h-168v82h1174v-267h-86v185h-621v-588h571v-82h-571v-600h661v186h87v-268h-1020v82h184v600h-389l-248 -600h166v-82h-402zM537 764h356v588h-115z" />
<glyph unicode="&#xc7;" horiz-adv-x="1515" d="M121 727q0 313 207 522t514 209q102 0 213.5 -23.5t210 -92t98.5 -168.5v-136h-90v115q0 74 -77 126t-171 73.5t-182 21.5q-268 0 -449.5 -185t-181.5 -462q0 -281 182.5 -474.5t454.5 -193.5q55 0 126 12.5t145.5 36t124.5 68.5t50 103v112h90v-133q0 -72 -52 -128 t-135 -87t-168 -48.5t-167 -19.5l-18 -98q59 -6 99 -45t40 -94q0 -80 -53 -118t-133 -38q-33 0 -66 4l-24 4v78l24 -6q29 -4 60 -4q106 0 106 76q0 78 -123 78h-24l34 165q-291 25 -478 238t-187 512z" />
<glyph unicode="&#xc8;" horiz-adv-x="1261" d="M109 0v82h194v1270h-194v82h989v-267h-86v185h-621v-588h572v-82h-572v-600h662v197h86v-279h-1030zM391 1763h131l193 -227h-111z" />
<glyph unicode="&#xc9;" horiz-adv-x="1261" d="M109 0v82h194v1270h-194v82h989v-267h-86v185h-621v-588h572v-82h-572v-600h662v197h86v-279h-1030zM561 1536l193 227h131l-213 -227h-111z" />
<glyph unicode="&#xca;" horiz-adv-x="1261" d="M109 0v82h194v1270h-194v82h989v-267h-86v185h-621v-588h572v-82h-572v-600h662v197h86v-279h-1030zM414 1536l164 227h122l164 -227h-108l-115 164h-4l-115 -164h-108z" />
<glyph unicode="&#xcb;" horiz-adv-x="1261" d="M109 0v82h194v1270h-194v82h989v-267h-86v185h-621v-588h572v-82h-572v-600h662v197h86v-279h-1030zM412 1614v149h110v-149h-110zM756 1614v149h110v-149h-110z" />
<glyph unicode="&#xcc;" horiz-adv-x="694" d="M98 1763h131l193 -227h-111zM109 0v82h194v1270h-194v82h477v-82h-195v-1270h195v-82h-477z" />
<glyph unicode="&#xcd;" horiz-adv-x="694" d="M109 0v82h194v1270h-194v82h477v-82h-195v-1270h195v-82h-477zM268 1536l193 227h131l-213 -227h-111z" />
<glyph unicode="&#xce;" horiz-adv-x="694" d="M109 0v82h194v1270h-194v82h477v-82h-195v-1270h195v-82h-477zM121 1536l164 227h123l163 -227h-108l-115 164h-4l-115 -164h-108z" />
<glyph unicode="&#xcf;" horiz-adv-x="694" d="M109 0v82h194v1270h-194v82h477v-82h-195v-1270h195v-82h-477zM119 1614v149h110v-149h-110zM463 1614v149h110v-149h-110z" />
<glyph unicode="&#xd0;" horiz-adv-x="1597" d="M109 0v82h194v600h-164v82h164v588h-194v82h645q324 0 519 -190.5t195 -526.5q0 -338 -194.5 -527.5t-519.5 -189.5h-645zM391 82h348q291 0 464 166t173 469q0 301 -173 468t-464 167h-348v-588h375v-82h-375v-600z" />
<glyph unicode="&#xd1;" horiz-adv-x="1685" d="M109 0v82h194v1270h-194v82h274l893 -1225l9 -14q5 -8 10 -19l8 -14q10 -12 12 -27h4l-4 31q-2 16 -2 53v1133h-195v82h477v-82h-194v-1352h-82l-891 1227l-27 47q-10 12 -12 26h-4l4 -30q4 -35 2 -53v-1135h195v-82h-477zM549 1542q0 221 172 221q51 0 92 -23.5 t62.5 -50t50 -50t57.5 -23.5q84 0 84 141h90q0 -221 -172 -221q-68 0 -113 37t-78.5 73.5t-70.5 36.5q-84 0 -84 -141h-90z" />
<glyph unicode="&#xd2;" d="M121 727q0 307 212 519t513 212t513 -212t212 -519q0 -313 -212 -532.5t-513 -219.5t-513 219.5t-212 532.5zM213 727q0 -283 184.5 -475.5t448.5 -192.5t448.5 192.5t184.5 475.5q0 274 -183.5 460.5t-449.5 186.5t-449.5 -186.5t-183.5 -460.5zM598 1763h131l193 -227 h-111z" />
<glyph unicode="&#xd3;" d="M121 727q0 307 212 519t513 212t513 -212t212 -519q0 -313 -212 -532.5t-513 -219.5t-513 219.5t-212 532.5zM213 727q0 -283 184.5 -475.5t448.5 -192.5t448.5 192.5t184.5 475.5q0 274 -183.5 460.5t-449.5 186.5t-449.5 -186.5t-183.5 -460.5zM768 1536l193 227h131 l-213 -227h-111z" />
<glyph unicode="&#xd4;" d="M121 727q0 307 212 519t513 212t513 -212t212 -519q0 -313 -212 -532.5t-513 -219.5t-513 219.5t-212 532.5zM213 727q0 -283 184.5 -475.5t448.5 -192.5t448.5 192.5t184.5 475.5q0 274 -183.5 460.5t-449.5 186.5t-449.5 -186.5t-183.5 -460.5zM621 1536l163 227h123 l164 -227h-108l-115 164h-4l-115 -164h-108z" />
<glyph unicode="&#xd5;" d="M121 727q0 307 212 519t513 212t513 -212t212 -519q0 -313 -212 -532.5t-513 -219.5t-513 219.5t-212 532.5zM213 727q0 -283 184.5 -475.5t448.5 -192.5t448.5 192.5t184.5 475.5q0 274 -183.5 460.5t-449.5 186.5t-449.5 -186.5t-183.5 -460.5zM543 1542q0 221 172 221 q51 0 92 -23.5t62.5 -50t50 -50t57.5 -23.5q84 0 84 141h90q0 -221 -172 -221q-68 0 -113 37t-78.5 73.5t-70.5 36.5q-84 0 -84 -141h-90z" />
<glyph unicode="&#xd6;" d="M121 727q0 307 212 519t513 212t513 -212t212 -519q0 -313 -212 -532.5t-513 -219.5t-513 219.5t-212 532.5zM213 727q0 -283 184.5 -475.5t448.5 -192.5t448.5 192.5t184.5 475.5q0 274 -183.5 460.5t-449.5 186.5t-449.5 -186.5t-183.5 -460.5zM618 1614v149h111v-149 h-111zM963 1614v149h110v-149h-110z" />
<glyph unicode="&#xd7;" horiz-adv-x="1228" d="M100 57l459 523l-459 522l58 57l456 -518l457 518l57 -57l-460 -522l460 -523l-57 -57l-457 518l-456 -518z" />
<glyph unicode="&#xd8;" d="M121 727q0 307 212 519t513 212q211 0 393 -117l100 142l70 -51l-100 -142q123 -102 192.5 -247.5t69.5 -315.5q0 -313 -212 -532.5t-513 -219.5q-213 0 -393 119l-101 -141l-71 49l102 143q-262 226 -262 582zM213 727q0 -311 221 -510l754 1055q-154 102 -342 102 q-266 0 -449.5 -186.5t-183.5 -460.5zM502 164q150 -104 344 -105q264 0 448.5 192.5t184.5 475.5q0 305 -222 494z" />
<glyph unicode="&#xd9;" horiz-adv-x="1607" d="M74 1352v82h477v-82h-195v-826q0 -180 70 -288q115 -178 377 -179q270 0 381 187q68 117 67 284v822h-194v82h477v-82h-195v-830q0 -197 -84 -329q-141 -217 -450 -218q-152 0 -271.5 57.5t-187.5 164.5q-78 125 -78 325v830h-194zM555 1763h131l193 -227h-111z" />
<glyph unicode="&#xda;" horiz-adv-x="1607" d="M74 1352v82h477v-82h-195v-826q0 -180 70 -288q115 -178 377 -179q270 0 381 187q68 117 67 284v822h-194v82h477v-82h-195v-830q0 -197 -84 -329q-141 -217 -450 -218q-152 0 -271.5 57.5t-187.5 164.5q-78 125 -78 325v830h-194zM725 1536l193 227h131l-213 -227h-111z " />
<glyph unicode="&#xdb;" horiz-adv-x="1607" d="M74 1352v82h477v-82h-195v-826q0 -180 70 -288q115 -178 377 -179q270 0 381 187q68 117 67 284v822h-194v82h477v-82h-195v-830q0 -197 -84 -329q-141 -217 -450 -218q-152 0 -271.5 57.5t-187.5 164.5q-78 125 -78 325v830h-194zM578 1536l163 227h123l164 -227h-108 l-115 164h-4l-115 -164h-108z" />
<glyph unicode="&#xdc;" horiz-adv-x="1607" d="M74 1352v82h477v-82h-195v-826q0 -180 70 -288q115 -178 377 -179q270 0 381 187q68 117 67 284v822h-194v82h477v-82h-195v-830q0 -197 -84 -329q-141 -217 -450 -218q-152 0 -271.5 57.5t-187.5 164.5q-78 125 -78 325v830h-194zM575 1614v149h111v-149h-111zM920 1614 v149h110v-149h-110z" />
<glyph unicode="&#xdd;" horiz-adv-x="1300" d="M20 1352v82h418v-82h-170l353 -588l18 -33q4 -6 8 -18h4l8 16l21 35l354 588h-170v82h416v-82h-145l-441 -729v-541h195v-82h-477v82h194v541l-440 729h-146zM573 1536l193 227h131l-213 -227h-111z" />
<glyph unicode="&#xde;" horiz-adv-x="1294" d="M109 82h194v1270h-194v82h477v-82h-195v-185h383q193 0 314.5 -112.5t121.5 -305t-122.5 -307t-317.5 -114.5h-379v-246h195v-82h-477v82zM391 410h379q160 0 254 90t94 249.5t-94 247.5t-254 88h-379v-675z" />
<glyph unicode="&#xdf;" horiz-adv-x="1206" d="M57 0v80h185v1010q0 170 115.5 269t269.5 99q152 0 240.5 -85t88.5 -197q0 -76 -38.5 -141.5t-85 -104.5t-85 -86t-38.5 -90q0 -49 67.5 -103.5t148.5 -100.5t148.5 -123t67.5 -165q0 -133 -92.5 -204.5t-223.5 -71.5q-121 0 -231 37q-43 14 -84 34v95q49 -27 88 -41 q100 -41 229 -41q94 0 159 49t65 143q0 59 -44 112.5t-108 93.5l-128 80q-65 40 -109 91t-44 111q0 61 39 118.5t85 95t85 95t39 117.5q0 76 -64.5 137t-178.5 61q-117 0 -206 -78.5t-89 -212.5v-1083h-271z" />
<glyph unicode="&#xe0;" horiz-adv-x="1093" d="M86 279q0 346 635 346h67v45q0 297 -272 297q-106 0 -217 -49q-41 -18 -84 -52l-49 70q37 31 92 57q106 55 260 56q356 0 356 -377v-547q0 -45 46 -45h122v-80h-135q-63 0 -91 26.5t-28 86.5v22q0 35 5 68l4 24h-4q-27 -70 -80 -125q-115 -127 -283 -127 q-137 0 -240.5 78.5t-103.5 225.5zM176 289q0 -96 67.5 -165t186.5 -69q113 0 197 66.5t122.5 164t38.5 203.5v56h-65q-547 0 -547 -256zM270 1434h131l193 -228h-111z" />
<glyph unicode="&#xe1;" horiz-adv-x="1093" d="M86 279q0 346 635 346h67v45q0 297 -272 297q-106 0 -217 -49q-41 -18 -84 -52l-49 70q37 31 92 57q106 55 260 56q356 0 356 -377v-547q0 -45 46 -45h122v-80h-135q-63 0 -91 26.5t-28 86.5v22q0 35 5 68l4 24h-4q-27 -70 -80 -125q-115 -127 -283 -127 q-137 0 -240.5 78.5t-103.5 225.5zM176 289q0 -96 67.5 -165t186.5 -69q113 0 197 66.5t122.5 164t38.5 203.5v56h-65q-547 0 -547 -256zM440 1206l193 228h131l-213 -228h-111z" />
<glyph unicode="&#xe2;" horiz-adv-x="1093" d="M86 279q0 346 635 346h67v45q0 297 -272 297q-106 0 -217 -49q-41 -18 -84 -52l-49 70q37 31 92 57q106 55 260 56q356 0 356 -377v-547q0 -45 46 -45h122v-80h-135q-63 0 -91 26.5t-28 86.5v22q0 35 5 68l4 24h-4q-27 -70 -80 -125q-115 -127 -283 -127 q-137 0 -240.5 78.5t-103.5 225.5zM176 289q0 -96 67.5 -165t186.5 -69q113 0 197 66.5t122.5 164t38.5 203.5v56h-65q-547 0 -547 -256zM293 1206l164 228h123l163 -228h-108l-115 164h-4l-115 -164h-108z" />
<glyph unicode="&#xe3;" horiz-adv-x="1093" d="M86 279q0 346 635 346h67v45q0 297 -272 297q-106 0 -217 -49q-41 -18 -84 -52l-49 70q37 31 92 57q106 55 260 56q356 0 356 -377v-547q0 -45 46 -45h122v-80h-135q-63 0 -91 26.5t-28 86.5v22q0 35 5 68l4 24h-4q-27 -70 -80 -125q-115 -127 -283 -127 q-137 0 -240.5 78.5t-103.5 225.5zM176 289q0 -96 67.5 -165t186.5 -69q113 0 197 66.5t122.5 164t38.5 203.5v56h-65q-547 0 -547 -256zM215 1212q0 221 172 222q51 0 92 -22.5t62.5 -51.5t50.5 -51.5t57 -22.5q84 0 84 141h90q0 -221 -172 -221q-68 0 -112.5 37t-78.5 74 t-71 37q-84 0 -84 -142h-90z" />
<glyph unicode="&#xe4;" horiz-adv-x="1093" d="M86 279q0 346 635 346h67v45q0 297 -272 297q-106 0 -217 -49q-41 -18 -84 -52l-49 70q37 31 92 57q106 55 260 56q356 0 356 -377v-547q0 -45 46 -45h122v-80h-135q-63 0 -91 26.5t-28 86.5v22q0 35 5 68l4 24h-4q-27 -70 -80 -125q-115 -127 -283 -127 q-137 0 -240.5 78.5t-103.5 225.5zM176 289q0 -96 67.5 -165t186.5 -69q113 0 197 66.5t122.5 164t38.5 203.5v56h-65q-547 0 -547 -256zM291 1284v150h110v-150h-110zM635 1284v150h110v-150h-110z" />
<glyph unicode="&#xe5;" horiz-adv-x="1093" d="M86 279q0 346 635 346h67v45q0 297 -272 297q-106 0 -217 -49q-41 -18 -84 -52l-49 70q37 31 92 57q106 55 260 56q356 0 356 -377v-547q0 -45 46 -45h122v-80h-135q-63 0 -91 26.5t-28 86.5v22q0 35 5 68l4 24h-4q-27 -70 -80 -125q-115 -127 -283 -127 q-137 0 -240.5 78.5t-103.5 225.5zM176 289q0 -96 67.5 -165t186.5 -69q113 0 197 66.5t122.5 164t38.5 203.5v56h-65q-547 0 -547 -256zM367 1321q0 66 44 110t107 44q66 0 111 -44.5t45 -109.5q0 -63 -45 -106.5t-111 -43.5q-63 0 -107 43.5t-44 106.5zM446 1321 q0 -33 19.5 -53.5t52.5 -20.5q35 0 55.5 20.5t20.5 53.5q0 37 -20.5 58.5t-55.5 21.5q-33 0 -52.5 -21.5t-19.5 -58.5z" />
<glyph unicode="&#xe6;" horiz-adv-x="1783" d="M90 272q0 70 22.5 125.5t56.5 90t89 60t103.5 38t120 19.5t115.5 8t112 1h82v45q0 307 -289 308q-111 0 -213 -49q-41 -18 -80 -52l-49 70q33 31 90 57q106 55 256 56q295 0 352 -240h4q125 240 406 240q195 0 304 -131.5t109 -325.5q0 -23 -2 -37q-2 -6 -2 -20h-800 q0 -223 116.5 -350.5t300.5 -127.5q123 0 234 66q49 29 84 65l47 -71q-41 -37 -98 -70q-131 -72 -267 -72q-160 0 -282.5 83t-177.5 231h-5q-6 -29 -27.5 -74t-63.5 -102.5t-119.5 -97.5t-176.5 -40q-150 0 -251 78t-101 219zM180 279q0 -92 69.5 -158t192.5 -66 q158 0 253.5 133.5t95.5 300.5v46h-142q-70 0 -123 -3.5t-122.5 -18.5t-114.5 -41t-77 -74.5t-32 -118.5zM885 614h706q-8 178 -101 265.5t-228 87.5q-147 0 -249.5 -90.5t-127.5 -262.5z" />
<glyph unicode="&#xe7;" horiz-adv-x="1114" d="M104 510q0 240 155 389.5t374 149.5q66 0 142.5 -17.5t147 -69t70.5 -126.5v-99h-86v80q0 68 -92 108t-182 40q-184 0 -311 -126t-127 -329q0 -201 127 -326t311 -125q147 0 256 74q53 35 86 74l45 -72q-41 -41 -94 -76q-125 -76 -275 -84l-18 -98q59 -6 99 -45t40 -94 q0 -80 -53 -118t-133 -38q-33 0 -66 4l-24 4v78l24 -6q29 -4 60 -4q106 0 106 76q0 78 -123 78h-24l34 168q-201 16 -335 162.5t-134 367.5z" />
<glyph unicode="&#xe8;" horiz-adv-x="1124" d="M106 510q0 248 145.5 393.5t352.5 145.5q201 0 309.5 -134.5t108.5 -332.5q0 -27 -2 -37q-2 -6 -2 -19h-821q0 -215 126 -341t312 -126q123 0 233 66q47 27 84 63l47 -71q-41 -37 -98 -70q-131 -72 -266 -72q-223 0 -376 148.5t-153 386.5zM203 606h729 q-8 180 -100.5 271.5t-229.5 91.5q-147 0 -258.5 -95.5t-140.5 -267.5zM360 1434h132l192 -228h-111z" />
<glyph unicode="&#xe9;" horiz-adv-x="1124" d="M106 510q0 248 145.5 393.5t352.5 145.5q201 0 309.5 -134.5t108.5 -332.5q0 -27 -2 -37q-2 -6 -2 -19h-821q0 -215 126 -341t312 -126q123 0 233 66q47 27 84 63l47 -71q-41 -37 -98 -70q-131 -72 -266 -72q-223 0 -376 148.5t-153 386.5zM203 606h729 q-8 180 -100.5 271.5t-229.5 91.5q-147 0 -258.5 -95.5t-140.5 -267.5zM530 1206l193 228h131l-213 -228h-111z" />
<glyph unicode="&#xea;" horiz-adv-x="1124" d="M106 510q0 248 145.5 393.5t352.5 145.5q201 0 309.5 -134.5t108.5 -332.5q0 -27 -2 -37q-2 -6 -2 -19h-821q0 -215 126 -341t312 -126q123 0 233 66q47 27 84 63l47 -71q-41 -37 -98 -70q-131 -72 -266 -72q-223 0 -376 148.5t-153 386.5zM203 606h729 q-8 180 -100.5 271.5t-229.5 91.5q-147 0 -258.5 -95.5t-140.5 -267.5zM383 1206l164 228h123l164 -228h-109l-115 164h-4l-114 -164h-109z" />
<glyph unicode="&#xeb;" horiz-adv-x="1124" d="M106 510q0 248 145.5 393.5t352.5 145.5q201 0 309.5 -134.5t108.5 -332.5q0 -27 -2 -37q-2 -6 -2 -19h-821q0 -215 126 -341t312 -126q123 0 233 66q47 27 84 63l47 -71q-41 -37 -98 -70q-131 -72 -266 -72q-223 0 -376 148.5t-153 386.5zM203 606h729 q-8 180 -100.5 271.5t-229.5 91.5q-147 0 -258.5 -95.5t-140.5 -267.5zM381 1284v150h111v-150h-111zM725 1284v150h111v-150h-111z" />
<glyph unicode="&#xec;" horiz-adv-x="575" d="M49 1434h131l193 -228h-111zM90 0v80h164v864h-164v80h250v-944h164v-80h-414z" />
<glyph unicode="&#xed;" horiz-adv-x="575" d="M90 0v80h164v864h-164v80h250v-944h164v-80h-414zM219 1206l193 228h131l-213 -228h-111z" />
<glyph unicode="&#xee;" horiz-adv-x="575" d="M72 1206l164 228h122l164 -228h-108l-115 164h-4l-115 -164h-108zM90 0v80h164v864h-164v80h250v-944h164v-80h-414z" />
<glyph unicode="&#xef;" horiz-adv-x="575" d="M86 1284v150h111v-150h-111zM90 0v80h164v864h-164v80h250v-944h164v-80h-414zM381 1284v150h111v-150h-111z" />
<glyph unicode="&#xf0;" horiz-adv-x="1200" d="M109 471q0 199 130 343t363 144q143 0 250 -67q47 -29 82 -68h4q-78 236 -281 375l-352 -164l-35 76l299 139q-123 66 -313 117l25 78q229 -57 385 -152l252 119l34 -76l-207 -96q319 -244 320 -686q0 -143 -50 -270t-166 -217.5t-280 -90.5q-211 0 -335.5 149.5 t-124.5 346.5zM199 471q0 -166 102 -290t272 -124q193 0 297.5 148.5t104.5 333.5q0 147 -103.5 242.5t-271.5 95.5q-193 0 -297 -120t-104 -286z" />
<glyph unicode="&#xf1;" horiz-adv-x="1353" d="M82 944v80h162q63 0 90.5 -26.5t27.5 -86.5v-67q0 -31 -4 -60l-4 -24h4q33 96 149 192.5t286 96.5q190 0 264 -101.5t74 -298.5v-569h184v-80h-271v618q0 61 -4 105.5t-18 93.5t-41 79t-75 49.5t-113 19.5q-180 0 -305.5 -135.5t-125.5 -321.5v-428h185v-80h-455v80h184 v819q0 45 -45 45h-149zM424 1212q0 221 172 222q51 0 92 -22.5t62.5 -51.5t50 -51.5t57.5 -22.5q84 0 84 141h90q0 -221 -172 -221q-68 0 -113 37t-78.5 74t-70.5 37q-84 0 -84 -142h-90z" />
<glyph unicode="&#xf2;" horiz-adv-x="1265" d="M102 518q0 223 155 377t376 154t375.5 -154t154.5 -377q0 -227 -154.5 -385t-375.5 -158t-376 158t-155 385zM193 518q0 -195 128 -327t312 -132t312 132.5t128 326.5q0 188 -128 317.5t-312 129.5t-312 -129.5t-128 -317.5zM385 1434h131l193 -228h-111z" />
<glyph unicode="&#xf3;" horiz-adv-x="1265" d="M102 518q0 223 155 377t376 154t375.5 -154t154.5 -377q0 -227 -154.5 -385t-375.5 -158t-376 158t-155 385zM193 518q0 -195 128 -327t312 -132t312 132.5t128 326.5q0 188 -128 317.5t-312 129.5t-312 -129.5t-128 -317.5zM555 1206l193 228h131l-213 -228h-111z" />
<glyph unicode="&#xf4;" horiz-adv-x="1265" d="M102 518q0 223 155 377t376 154t375.5 -154t154.5 -377q0 -227 -154.5 -385t-375.5 -158t-376 158t-155 385zM193 518q0 -195 128 -327t312 -132t312 132.5t128 326.5q0 188 -128 317.5t-312 129.5t-312 -129.5t-128 -317.5zM408 1206l163 228h123l164 -228h-108 l-115 164h-4l-115 -164h-108z" />
<glyph unicode="&#xf5;" horiz-adv-x="1265" d="M102 518q0 223 155 377t376 154t375.5 -154t154.5 -377q0 -227 -154.5 -385t-375.5 -158t-376 158t-155 385zM193 518q0 -195 128 -327t312 -132t312 132.5t128 326.5q0 188 -128 317.5t-312 129.5t-312 -129.5t-128 -317.5zM330 1212q0 221 172 222q51 0 92 -22.5 t62.5 -51.5t50 -51.5t57.5 -22.5q84 0 84 141h90q0 -221 -172 -221q-68 0 -113 37t-78.5 74t-70.5 37q-84 0 -84 -142h-90z" />
<glyph unicode="&#xf6;" horiz-adv-x="1265" d="M102 518q0 223 155 377t376 154t375.5 -154t154.5 -377q0 -227 -154.5 -385t-375.5 -158t-376 158t-155 385zM193 518q0 -195 128 -327t312 -132t312 132.5t128 326.5q0 188 -128 317.5t-312 129.5t-312 -129.5t-128 -317.5zM406 1284v150h110v-150h-110zM750 1284v150 h110v-150h-110z" />
<glyph unicode="&#xf7;" horiz-adv-x="1228" d="M127 539v82h975v-82h-975zM555 156v120h117v-120h-117zM555 883v121h117v-121h-117z" />
<glyph unicode="&#xf8;" horiz-adv-x="1265" d="M102 518q0 223 155 377t376 154q156 0 287 -82l77 108l62 -47l-78 -108q182 -162 182 -402q0 -227 -154.5 -385t-375.5 -158q-141 0 -271 76l-75 -106l-62 47l74 104q-197 160 -197 422zM193 518q0 -211 155 -352l522 731q-111 68 -237 68q-184 0 -312 -129.5 t-128 -317.5zM412 121q100 -61 221 -62q184 0 312 132.5t128 326.5q0 201 -143 330z" />
<glyph unicode="&#xf9;" horiz-adv-x="1312" d="M37 944v80h280v-618q0 -61 4.5 -105.5t18.5 -93.5t41 -79t75 -49.5t113 -19.5q184 0 302 138.5t118 326.5v420h-194v80h280v-901q0 -45 45 -45h123v-78h-135q-63 0 -91 26.5t-28 86.5v57q0 45 2 59q2 8 2 25h-4q-33 -96 -144.5 -187.5t-275.5 -91.5q-182 0 -260 98.5 t-78 301.5v569h-194zM385 1434h131l193 -228h-111z" />
<glyph unicode="&#xfa;" horiz-adv-x="1312" d="M37 944v80h280v-618q0 -61 4.5 -105.5t18.5 -93.5t41 -79t75 -49.5t113 -19.5q184 0 302 138.5t118 326.5v420h-194v80h280v-901q0 -45 45 -45h123v-78h-135q-63 0 -91 26.5t-28 86.5v57q0 45 2 59q2 8 2 25h-4q-33 -96 -144.5 -187.5t-275.5 -91.5q-182 0 -260 98.5 t-78 301.5v569h-194zM555 1206l193 228h131l-213 -228h-111z" />
<glyph unicode="&#xfb;" horiz-adv-x="1312" d="M37 944v80h280v-618q0 -61 4.5 -105.5t18.5 -93.5t41 -79t75 -49.5t113 -19.5q184 0 302 138.5t118 326.5v420h-194v80h280v-901q0 -45 45 -45h123v-78h-135q-63 0 -91 26.5t-28 86.5v57q0 45 2 59q2 8 2 25h-4q-33 -96 -144.5 -187.5t-275.5 -91.5q-182 0 -260 98.5 t-78 301.5v569h-194zM408 1206l163 228h123l164 -228h-108l-115 164h-4l-115 -164h-108z" />
<glyph unicode="&#xfc;" horiz-adv-x="1312" d="M37 944v80h280v-618q0 -61 4.5 -105.5t18.5 -93.5t41 -79t75 -49.5t113 -19.5q184 0 302 138.5t118 326.5v420h-194v80h280v-901q0 -45 45 -45h123v-78h-135q-63 0 -91 26.5t-28 86.5v57q0 45 2 59q2 8 2 25h-4q-33 -96 -144.5 -187.5t-275.5 -91.5q-182 0 -260 98.5 t-78 301.5v569h-194zM405 1284v150h111v-150h-111zM750 1284v150h110v-150h-110z" />
<glyph unicode="&#xfd;" horiz-adv-x="1148" d="M16 944v80h396v-80h-162l305 -780q8 -18 12 -41l4 -17h4q0 4 5 17q4 6 8 20.5t6 20.5l305 780h-162v80h396v-80h-142l-463 -1159q-39 -98 -108.5 -156.5t-163.5 -58.5q-61 0 -119 27q-23 12 -47 28l39 76q14 -16 37 -25q39 -25 90 -24q68 0 120 52t83 132l69 168 l-372 940h-140zM510 1206l192 228h132l-213 -228h-111z" />
<glyph unicode="&#xfe;" horiz-adv-x="1198" d="M10 -330h185v1684h-185v80h271v-523v-59q0 -16 -2 -23h4q29 63 75 111q109 109 289 109q203 0 323 -147.5t120 -389.5t-127 -389.5t-328 -147.5q-166 0 -277 111q-51 51 -77 111h-5q0 -14 3 -25q2 -16 2 -66v-436h184v-80h-455v80zM279 510q0 -182 96 -317.5t260 -135.5 q158 0 261 123t103 332q0 205 -99 329t-257 124q-156 0 -260 -114t-104 -341z" />
<glyph unicode="&#xff;" horiz-adv-x="1148" d="M16 944v80h396v-80h-162l305 -780q8 -18 12 -41l4 -17h4q0 4 5 17q4 6 8 20.5t6 20.5l305 780h-162v80h396v-80h-142l-463 -1159q-39 -98 -108.5 -156.5t-163.5 -58.5q-61 0 -119 27q-23 12 -47 28l39 76q14 -16 37 -25q39 -25 90 -24q68 0 120 52t83 132l69 168 l-372 940h-140zM360 1284v150h111v-150h-111zM705 1284v150h110v-150h-110z" />
<glyph unicode="&#x152;" horiz-adv-x="1943" d="M123 717q0 313 202.5 525t518.5 212q37 0 123 -10t114 -10h701v-267h-86v185h-621v-588h572v-82h-572v-600h662v186h86v-268h-740q-27 0 -114.5 -10t-124.5 -10q-315 0 -518 211t-203 526zM215 717q0 -283 174 -468.5t455 -185.5q66 0 100 9l43 8v1274l-43 8 q-35 8 -100 8q-281 0 -455 -186t-174 -467z" />
<glyph unicode="&#x153;" horiz-adv-x="2091" d="M104 510q0 240 155 389.5t374 149.5q158 0 287 -82t192 -224h4q59 145 181 225.5t274 80.5q201 0 309.5 -134.5t108.5 -332.5q0 -27 -2 -37q-2 -6 -2 -19h-822q8 -221 131 -344t308 -123q123 0 233 66q47 27 84 63l47 -71q-41 -37 -98 -70q-131 -72 -266 -72 q-164 0 -293 81t-191 227h-4q-61 -145 -190 -226.5t-291 -81.5q-221 0 -375 148.5t-154 386.5zM195 510q0 -201 127 -326t311 -125t312 127t128 334q0 197 -129 321t-311 124q-184 0 -311 -127t-127 -328zM1169 606h729q-8 180 -100 271.5t-229 91.5q-147 0 -259 -95.5 t-141 -267.5z" />
<glyph unicode="&#x178;" horiz-adv-x="1300" d="M20 1352v82h418v-82h-170l353 -588l18 -33q4 -6 8 -18h4l8 16l21 35l354 588h-170v82h416v-82h-145l-441 -729v-541h195v-82h-477v82h194v541l-440 729h-146zM424 1614v149h111v-149h-111zM768 1614v149h111v-149h-111z" />
<glyph unicode="&#x2c6;" horiz-adv-x="1040" d="M295 1536l164 227h123l163 -227h-108l-115 164h-4l-115 -164h-108z" />
<glyph unicode="&#x2dc;" horiz-adv-x="1042" d="M217 1542q0 221 172 221q51 0 92 -23.5t62.5 -50t50.5 -50t57 -23.5q84 0 84 141h90q0 -221 -172 -221q-68 0 -112.5 37t-78.5 73.5t-71 36.5q-84 0 -84 -141h-90z" />
<glyph unicode="&#x2013;" horiz-adv-x="1490" d="M258 539v82h975v-82h-975z" />
<glyph unicode="&#x2014;" horiz-adv-x="1900" d="M258 539v82h1384v-82h-1384z" />
<glyph unicode="&#x2018;" horiz-adv-x="417" d="M119 1059l119 391h79l-92 -391h-106z" />
<glyph unicode="&#x2019;" horiz-adv-x="409" d="M123 1059l92 391h107l-119 -391h-80z" />
<glyph unicode="&#x201a;" horiz-adv-x="479" d="M100 -266l93 391h106l-119 -391h-80z" />
<glyph unicode="&#x201c;" horiz-adv-x="643" d="M119 1059l119 391h79l-92 -391h-106zM344 1059l119 391h80l-92 -391h-107z" />
<glyph unicode="&#x201d;" horiz-adv-x="634" d="M123 1059l92 391h107l-119 -391h-80zM348 1059l92 391h107l-119 -391h-80z" />
<glyph unicode="&#x201e;" horiz-adv-x="704" d="M100 -266l93 391h106l-119 -391h-80zM326 -266l92 391h106l-118 -391h-80z" />
<glyph unicode="&#x2022;" horiz-adv-x="802" d="M131 596q0 111 80 190.5t190.5 79.5t190.5 -79.5t80 -190.5t-80 -190.5t-190.5 -79.5t-190.5 79.5t-80 190.5z" />
<glyph unicode="&#x2026;" horiz-adv-x="1357" d="M180 0v129h125v-129h-125zM616 0v129h125v-129h-125zM1053 0v129h125v-129h-125z" />
<glyph unicode="&#x2039;" horiz-adv-x="688" d="M111 578l335 421h109l-336 -421l336 -420h-109z" />
<glyph unicode="&#x203a;" horiz-adv-x="688" d="M133 158l336 420l-336 421h109l336 -421l-336 -420h-109z" />
<glyph unicode="&#x20ac;" horiz-adv-x="1214" d="M102 539v82h111q-12 90 2 223h-113v82h127q57 236 242.5 384t435.5 148q76 0 131 -10l52 -12l-21 -86l-47 12q-51 10 -115 10q-217 0 -372.5 -123t-210.5 -323h669l-16 -82h-670q-14 -100 -4 -223h635l-14 -82h-609q47 -213 208 -345.5t384 -132.5q53 0 129 15l51 12 l25 -84l-59 -14q-68 -14 -146 -15q-258 0 -446.5 158t-237.5 406h-121z" />
<glyph unicode="&#x2122;" horiz-adv-x="1914" d="M63 1356v78h738v-78h-330v-815h-80v815h-328zM885 541l71 893h72l258 -553q14 -25 21 -56q2 -6 5 -14t3 -12h4q0 4 3 12t5 14l21 56l258 553h71l72 -893h-78l-57 671v41q0 10 2 17h-4l-260 -561h-70l-260 561h-4q2 -6 2 -17v-41l-57 -671h-78z" />
<glyph unicode="&#xe000;" horiz-adv-x="1025" d="M0 1025h1025v-1025h-1025v1025z" />
<glyph unicode="&#xfb01;" horiz-adv-x="1247" d="M82 944v80h194v55q0 113 33 191t85 111.5t96.5 46t89.5 12.5q39 0 53 -2l20 -4v-80l-18 4q-14 2 -49 2t-68 -9.5t-70.5 -36t-61.5 -86t-24 -147.5v-57h648v-944h184v-80h-455v80h185v864h-562v-864h216v-80h-486v80h184v864h-194zM911 1284v150h111v-150h-111z" />
<glyph unicode="&#xfb02;" horiz-adv-x="1198" d="M82 944v80h194v37q0 115 37 196.5t98.5 123.5t125 59.5t133.5 17.5q111 0 213 -20q53 -10 80 -21v-1184q0 -74 26.5 -115.5t104.5 -41.5q29 0 35 2t16 2l-2 -80q-16 0 -23 -2q-14 -2 -45 -2q-199 0 -198 229v1129l-48 12q-66 12 -155 12q-57 0 -108.5 -14t-99.5 -48 t-76 -98.5t-28 -154.5v-39h273v-80h-273v-864h216v-80h-486v80h184v864h-194z" />
<glyph unicode="&#xfb03;" horiz-adv-x="1894" d="M82 944v80h194v55q0 113 33 191t85 111.5t96.5 46t89.5 12.5q39 0 53 -2l20 -4v-80l-18 4q-14 2 -49 2t-68 -9.5t-70.5 -36t-61.5 -86t-24 -147.5v-57h562v55q0 113 32.5 191t85 111.5t96.5 46t89 12.5q39 0 53 -2l20 -4v-80l-18 4q-14 2 -49 2t-67.5 -9.5t-70.5 -36 t-61.5 -86t-23.5 -147.5v-57h647v-944h184v-80h-455v80h185v864h-561v-864h215v-80h-486v80h185v864h-562v-864h216v-80h-486v80h184v864h-194zM1559 1284v150h110v-150h-110z" />
<glyph unicode="&#xfb04;" horiz-adv-x="1845" d="M82 944v80h194v55q0 92 23 161t55.5 105.5t77.5 59t80 29t72 6.5q35 0 49 -2l20 -4v-80l-18 4q-14 2 -45 2q-35 0 -69 -9.5t-72.5 -36t-62.5 -86t-24 -147.5v-57h562v37q0 115 36.5 196.5t98 123.5t125 59.5t133.5 17.5q111 0 213 -20q53 -10 80 -21v-1184 q0 -74 26.5 -115.5t104.5 -41.5q29 0 35 2t16 2l-2 -80q-16 0 -23 -2q-14 -2 -45 -2q-199 0 -198 229v1129l-47 12q-66 12 -156 12q-57 0 -108.5 -14t-99.5 -48t-75.5 -98.5t-27.5 -154.5v-39h272v-80h-272v-864h215v-80h-486v80h185v864h-562v-864h216v-80h-486v80h184v864 h-194z" />
<glyph horiz-adv-x="512" />
</font>
</defs>
</svg>
